На всех торрентах на трекере установлена скидка на скачивание в размере 100 процентов(а).
 Возможность скачивания торрента НЕ зависит от ограничений при низком ратио, низком аплоаде, требуемом ратио или требуемом аплоаде.


Начать новую тему Ответить на тему
Статистика раздачи
Размер: 7.76 ГБ | Добавлен: 04 авг 2013, 19:18 | Скачали: 101
Сидеров: 19  [0 байт/сек]    Личеров: 0  [0 байт/сек]
Пред. тема | След. тема 

Автор
Сообщение

СообщениеДобавлено: 04 авг 2013, 19:18 

Название: Тонкая красная линия
Оригинальное название: The Thin Red Line
Год выхода: 1998
Жанр: драма, военный
Режиссер: Терренс Малик / Terrence Malick

В ролях: Кирк Асеведо, Шон Пенн, Пенелопа Аллен, Эдриан Броуди, Джеймс Кэвизел, Бенжамин Грин, Саймон Биллиг, Бен Чаплин, Марк Бун Джуниор,Джордж Клуни, Джон Кьюсак, Вуди Харрельсон, Ник Нолти, Джон Си Райли, Джон Траволта

О фильме:
Фильм рассказывает о нескольких месяцах жизни армейского подразделения, в том числе об участии этого подразделения в одной из решающих и сложных операций XX-го века — битве за Гвадалканал. Американские пехотинцы посланы на подмогу морским подразделениям, измотанным схваткой с японцами.
В центре фильма — судьба стрелкового батальона: неожиданно спокойная высадка, кровавые бои и трагическое отступление тех, кому удалось выжить.



Выпущено: США
Продолжительность: 02:50:37
Перевод: Дублированный + Оригинал


Кодек: x264
Качество: BDRip 1080p
Видео: 1920x816, 5617 Kbps, 23.976 fps
Аудио #1: AC-3, 6 ch, 448 kbps (Rus)
Аудио #2: AC-3, 6 ch, 448 kbps (Eng)
Субтитры: русские, английские

Общее
Уникальный идентификатор : 210519726343612153607259806380811763041 (0x9E609FDE3EACDBB89F55902A0E663D61)
Полное имя : Тонкая красная линия.1998.BDRip.1080p.Rus.Eng.mkv
Формат : Matroska
Версия формата : Version 4 / Version 2
Размер файла : 7,76 Гбайт
Продолжительность : 2 ч. 50 м.
Общий поток : 6513 Кбит/сек
Название фильма : Тонкая красная линия.1998
Дата кодирования : UTC 2013-03-12 17:25:55
Программа кодирования : mkvmerge v6.0.0 ('Coming Up For Air') built on Jan 20 2013 09:52:00
Библиотека кодирования : libebml v1.3.0 + libmatroska v1.4.0

Видео
Идентификатор : 1
Формат : AVC
Формат/Информация : Advanced Video Codec
Профиль формата : High@L4.1
Параметр CABAC формата : Да
Параметр ReFrames формата : 5 кадров
Идентификатор кодека : V_MPEG4/ISO/AVC
Продолжительность : 2 ч. 50 м.
Битрейт : 5617 Кбит/сек
Ширина : 1920 пикселей
Высота : 816 пикселей
Соотношение сторон : 2,35:1
Режим частоты кадров : Постоянный
Частота кадров : 23,976 кадра/сек
Цветовое пространство : YUV
Субдискретизация насыщенности : 4:2:0
Битовая глубина : 8 бит
Тип развёртки : Прогрессивная
Бит/(Пиксели*Кадры) : 0.150
Размер потока : 6,54 Гбайт (84%)
Заголовок : Rip by Boriy
Библиотека кодирования : x264 core 130 r2273 b3065e6
Настройки программы : cabac=1 / ref=5 / deblock=1:0:0 / analyse=0x3:0x113 / me=umh / subme=10 / psy=1 / psy_rd=1.00:0.10 / mixed_ref=1 / me_range=32 / chroma_me=1 / trellis=2 / 8x8dct=1 / cqm=0 / deadzone=21,11 / fast_pskip=0 / chroma_qp_offset=-2 / threads=12 / lookahead_threads=1 / sliced_threads=0 / nr=0 / decimate=0 / interlaced=0 / bluray_compat=0 / constrained_intra=0 / bframes=5 / b_pyramid=2 / b_adapt=2 / b_bias=0 / direct=3 / weightb=1 / open_gop=0 / weightp=2 / keyint=240 / keyint_min=23 / scenecut=40 / intra_refresh=0 / rc=2pass / mbtree=0 / bitrate=5617 / ratetol=1.0 / qcomp=0.60 / qpmin=0 / qpmax=69 / qpstep=4 / cplxblur=20.0 / qblur=0.5 / ip_ratio=1.40 / pb_ratio=1.30 / aq=1:0.80
Язык : English
Default : Да
Forced : Нет

Аудио #1
Идентификатор : 2
Формат : AC-3
Формат/Информация : Audio Coding 3
Расширение режима : CM (complete main)
Параметр Endianness формата : Big
Идентификатор кодека : A_AC3
Продолжительность : 2 ч. 50 м.
Вид битрейта : Постоянный
Битрейт : 448 Кбит/сек
Каналы : 6 каналов
Расположение каналов : Front: L C R, Side: L R, LFE
Частота : 48,0 КГц
Битовая глубина : 16 бит
Метод сжатия : С потерями
Размер потока : 547 Мбайт (7%)
Заголовок : Дубляж
Язык : Russian
Default : Да
Forced : Нет

Аудио #2
Идентификатор : 3
Формат : AC-3
Формат/Информация : Audio Coding 3
Расширение режима : CM (complete main)
Параметр Endianness формата : Big
Идентификатор кодека : A_AC3
Продолжительность : 2 ч. 50 м.
Вид битрейта : Постоянный
Битрейт : 448 Кбит/сек
Каналы : 6 каналов
Расположение каналов : Front: L C R, Side: L R, LFE
Частота : 48,0 КГц
Битовая глубина : 16 бит
Метод сжатия : С потерями
Размер потока : 547 Мбайт (7%)
Заголовок : Оригинал
Язык : English
Default : Нет
Forced : Нет

Текст #1
Идентификатор : 4
Формат : UTF-8
Идентификатор кодека : S_TEXT/UTF8
Идентификатор кодека/Информация : UTF-8 Plain Text
Язык : Russian
Default : Нет
Forced : Нет

Текст #2
Идентификатор : 5
Формат : UTF-8
Идентификатор кодека : S_TEXT/UTF8
Идентификатор кодека/Информация : UTF-8 Plain Text
Язык : English
Default : Нет
Forced : Нет

Меню
00:00:00.000 : :Chapter 1
00:10:39.639 : :Chapter 2
00:15:44.401 : :Chapter 3
00:20:09.583 : :Chapter 4
00:25:48.588 : :Chapter 5
00:36:09.750 : :Chapter 6
00:38:07.118 : :Chapter 7
00:41:15.764 : :Chapter 8
00:44:23.827 : :Chapter 9
00:55:35.248 : :Chapter 10
01:00:55.943 : :Chapter 11
01:05:06.068 : :Chapter 12
01:11:06.971 : :Chapter 13
01:13:29.405 : :Chapter 14
01:21:43.899 : :Chapter 15
01:26:28.516 : :Chapter 16
01:39:47.648 : :Chapter 17
01:43:54.436 : :Chapter 18
01:45:20.105 : :Chapter 19
01:56:33.486 : :Chapter 20
02:03:17.390 : :Chapter 21
02:05:43.827 : :Chapter 22
02:11:23.584 : :Chapter 23
02:14:40.113 : :Chapter 24
02:19:39.829 : :Chapter 25
02:24:16.856 : :Chapter 26
02:28:14.218 : :Chapter 27
02:32:32.268 : :Chapter 28
02:37:22.057 : :Chapter 29
02:39:27.516 : :Chapter 30
02:43:35.806 : :Chapter 31
02:50:37.018 : :Chapter 32
загрузка...
Правила, инструкции, FAQ!!!
Торрент  Добавлен [04 авг 2013, 19:18] Скачать торрент
Скачать торрент
[ Размер 39.25 КБ / Просмотров 6 ]

Статус  
 
Размер  7.76 ГБ
Приватный: Нет (DHT включён)
.torrent скачан  101
Как залить торрент? | Как скачать Torrent? | Как смотреть и слушать онлайн?  


     Отправить личное сообщение
   
Страница 1 из 1
Показать сообщения за:  Поле сортировки  
Начать новую тему Ответить на тему

   Похожие торренты   Автор   Ответы   Просмотры   Последнее сообщение 
В этой теме нет новых непрочитанных сообщений. Скачать торрент Проверен (Indie) Indiana Project - Тонкая белая линия (Single) - 2012, MP3, 320 kbps

в форуме Русский Рок, Размер: 42.45 МБ, Здоровье: 0%

Anonymous

0
0|0

0
0

22 авг 2016, 11:26

Anonymous Перейти к последнему сообщению

В этой теме нет новых непрочитанных сообщений. Скачать торрент Проверен ТонкаяКраснаяНить (Тонкая Красная Нить) - 2 альбома (2009-2011) [FLAC|Lossless] <MetalCore, Alternative>

в форуме Русский рок, Размер: 916.92 МБ, Здоровье: ???%

Anonymous

0
0|5

64
0

03 июл 2014, 06:36

Anonymous Перейти к последнему сообщению

В этой теме нет новых непрочитанных сообщений. Скачать торрент Проверен Тонкая Красная Нить - Live in Н.Новгород 6 ноября 2010 г. [2010, Alternative, HDCamRip]

в форуме Концерты (HD-Video), Размер: 2.08 ГБ, Здоровье: 100%

Anonymous

0
1|0

0
0

23 окт 2016, 10:52

Anonymous Перейти к последнему сообщению

В этой теме нет новых непрочитанных сообщений. Скачать торрент Проверен (Alternative metal/Nu metal) ТонкаяКраснаяНить (Тонкая Красная Нить) - Дискография - 2006-2011 (9 релизов), MP3, 128-320 kbps

в форуме Русский Рок, Размер: 390.63 МБ, Здоровье: 0%

Anonymous

0
0|0

2
1

23 авг 2016, 01:12

Anonymous Перейти к последнему сообщению

В этой теме нет новых непрочитанных сообщений. Скачать торрент Красная планета / Red Planet (2000) BDRip 1080p

в форуме 720p | 1080p, Размер: 7.76 ГБ, Здоровье: 100%

Anonymous

0
39|25

45
33

16 янв 2014, 20:02

Anonymous Перейти к последнему сообщению



Сейчас этот форум просматривают: нет зарегистрированных пользователей и гости: 1


Вы не можете начинать темы
Вы не можете отвечать на сообщения
Вы не можете редактировать свои сообщения
Вы не можете удалять свои сообщения
Вы не можете добавлять вложения

Перейти:  

!ВНИМАНИЕ!
 Ресурс не предоставляет электронные версии произведений, а занимается лишь коллекционированием и каталогизацией ссылок, присылаемых и публикуемых на форуме нашими читателями. Если вы являетесь правообладателем какого-либо представленного материала и не желаете чтобы ссылка на него находилась в нашем каталоге, свяжитесь с нами и мы незамедлительно удалим её. Файлы для обмена на трекере предоставлены пользователями сайта, и администрация не несёт ответственности за их содержание. Просьба не заливать файлы, защищенные авторскими правами, а также файлы нелегального содержания!