На всех торрентах на трекере установлена скидка на скачивание в размере 100 процентов(а).
 Возможность скачивания торрента НЕ зависит от ограничений при низком ратио, низком аплоаде, требуемом ратио или требуемом аплоаде.


Начать новую тему Ответить на тему
Статистика раздачи
Размер: 7.94 ГБ | Добавлен: 01 авг 2013, 20:17 | Скачали: 1
Сидеров: 0  [0 байт/сек]    Личеров: 0  [0 байт/сек]
Пред. тема | След. тема 

Автор
Сообщение

СообщениеДобавлено: 01 авг 2013, 20:17 

Информация о фильме
    Русское название: Впритык
    Оригинальное название: Due Date
    Год выхода: 2010
    Жанр: Комедия
    Режиссер: Тодд Филлипс
    Выпущено: США
    Продолжительность: 01:35:16
    Перевод: Дублированный

    В ролях: Роберт Дауни мл., Зак Галифианакис, Мишель Монахэн, Джейми Фокс, Джульетт Льюис, Дэнни МакБрайд, РЗА, Мэтт Уолш, Броди Стивенс, Джейкоб Ульрих


Сюжет фильма
    Питер готовится стать отцом и находится на грани нервного срыва. И его нервам не идет на пользу тот факт, что ему предстоит предпринять целое путешествие, да еще и в компании честолюбивого актера, чтобы успеть добраться домой к рождению собственного ребенка.


Файл
    Качество: BDRip 1080p (DVD9) (исходник Blu-ray Disc)
    Видео: 1920x800, 10857 Кбит/сек, 23,976 кадр/сек, AVC, x264, High@L4.1, 2.40:1, 0.295 Бит/[Пиксели*Кадры], 2pass
    Аудио 1: AC-3, 448 Кбит/сек, 6 канала(ов), 48,0 КГц - Дублированный / Русский
    Аудио 2: AC-3, 640 Кбит/сек, 6 канала(ов), 48,0 КГц - Оригинал / Английский
    Субтитры: Русские | Полные
    Чаптеры: Есть



Релиз Группа | Автор Рипа:



Format : Matroska
Format version : Version 4 / Version 2
File size : 7.94 GiB
Duration : 1h 35mn
Overall bit rate : 11.9 Mbps
Movie name : Впритык.(2010).BDRip.1080p.(DVD9).[NoLimits-Team]
Encoded date : UTC 2013-08-01 13:18:21
Writing application : mkvmerge v6.3.0 ('You can't stop me!') built on Jun 28 2013 20:09:41
Writing library : libebml v1.3.0 + libmatroska v1.4.0

Video
ID : 1
Format : AVC
Format/Info : Advanced Video Codec
Format profile : High@L4.1
Format settings, CABAC : Yes
Format settings, ReFrames : 5 frames
Codec ID : V_MPEG4/ISO/AVC
Duration : 1h 35mn
Bit rate : 10.9 Mbps
Width : 1 920 pixels
Height : 800 pixels
Display aspect ratio : 2.40:1
Frame rate mode : Constant
Frame rate : 23.976 fps
Color space : YUV
Chroma subsampling : 4:2:0
Bit depth : 8 bits
Scan type : Progressive
Bits/(Pixel*Frame) : 0.295
Stream size : 7.06 GiB (89%)
Title : Впритык.(2010).BDRip.1080p.(DVD9).[NoLimits-Team]
Writing library : x264 core 135 r2345 f0c1c53
Encoding settings : cabac=1 / ref=5 / deblock=0:0:0 / analyse=0x3:0x133 / me=umh / subme=11 / psy=1 / psy_rd=1.00:0.00 / mixed_ref=1 / me_range=32 / chroma_me=1 / trellis=2 / 8x8dct=1 / cqm=0 / deadzone=21,11 / fast_pskip=0 / chroma_qp_offset=-2 / threads=12 / lookahead_threads=2 / sliced_threads=0 / nr=0 / decimate=1 / interlaced=0 / bluray_compat=0 / constrained_intra=0 / bframes=8 / b_pyramid=2 / b_adapt=2 / b_bias=0 / direct=3 / weightb=1 / open_gop=0 / weightp=2 / keyint=240 / keyint_min=23 / scenecut=40 / intra_refresh=0 / rc=2pass / mbtree=0 / bitrate=10857 / ratetol=2.0 / qcomp=0.60 / qpmin=0 / qpmax=69 / qpstep=4 / cplxblur=20.0 / qblur=0.5 / ip_ratio=1.40 / pb_ratio=1.30 / aq=1:1.00
Language : English
Default : Yes
Forced : No

Audio #1
ID : 2
Format : AC-3
Format/Info : Audio Coding 3
Mode extension : CM (complete main)
Format settings, Endianness : Big
Codec ID : A_AC3
Duration : 1h 35mn
Bit rate mode : Constant
Bit rate : 448 Kbps
Channel(s) : 6 channels
Channel positions : Front: L C R, Side: L R, LFE
Sampling rate : 48.0 KHz
Bit depth : 16 bits
Compression mode : Lossy
Stream size : 305 MiB (4%)
Title : Дублированный
Language : Russian
Default : Yes
Forced : No

Audio #2
ID : 3
Format : AC-3
Format/Info : Audio Coding 3
Mode extension : CM (complete main)
Format settings, Endianness : Big
Codec ID : A_AC3
Duration : 1h 35mn
Bit rate mode : Constant
Bit rate : 640 Kbps
Channel(s) : 6 channels
Channel positions : Front: L C R, Side: L R, LFE
Sampling rate : 48.0 KHz
Bit depth : 16 bits
Compression mode : Lossy
Stream size : 436 MiB (5%)
Title : Оригинал / Английский
Language : English
Default : No
Forced : No

Text
ID : 4
Format : UTF-8
Codec ID : S_TEXT/UTF8
Codec ID/Info : UTF-8 Plain Text
Title : Русские (полные)
Language : Russian
Default : No
Forced : No

Menu
00:00:00.000 : :Chapter 01
00:09:58.055 : :Chapter 02
00:18:37.157 : :Chapter 03
00:30:19.943 : :Chapter 04
00:40:59.415 : :Chapter 05
00:50:43.457 : :Chapter 06
00:58:39.807 : :Chapter 07
01:08:47.790 : :Chapter 08
01:18:34.418 : :Chapter 09
01:28:30.555 : :Chapter 10


загрузка...
Правила, инструкции, FAQ!!!
Торрент  Добавлен [01 авг 2013, 20:17] Скачать торрент
Скачать торрент
[ Размер 40.15 КБ / Просмотров 6 ]

Статус  
 
Размер  7.94 ГБ
Приватный: Нет (DHT включён)
.torrent скачан  1
Как залить торрент? | Как скачать Torrent? | Как смотреть и слушать онлайн?  


     Отправить личное сообщение
   
Страница 1 из 1
Показать сообщения за:  Поле сортировки  
Начать новую тему Ответить на тему

   Похожие торренты   Автор   Ответы   Просмотры   Последнее сообщение 
В этой теме нет новых непрочитанных сообщений. Скачать торрент Проверен [iPhone] Впритык / Due Date (Тодд Филлипс / Todd Phillips) [2010, драма, комедия, BDRip, 720х320] Rus, Ukr, Eng + Subs (Rus, Ukr, Eng)

в форуме Фильмы для iPod, iPhone, iPad, Размер: 1.06 ГБ, Здоровье: 100%

Гость

0
12|4

29
0

14 май 2015, 00:01

Гость Перейти к последнему сообщению

В этой теме нет новых непрочитанных сообщений. Скачать торрент Проверен [PSP] Впритык / Due Date (2010) HDRip

в форуме Видео для смартфонов и КПК, Размер: 612.19 МБ, Здоровье: 100%

Anonymous

0
4|1

32
0

25 окт 2014, 23:22

Anonymous Перейти к последнему сообщению

В этой теме нет новых непрочитанных сообщений. Скачать торрент Впритык / Due Date (Тодд Филлипс / Todd Phillips) [2010, США, Комедия, HDRip] Dub

в форуме Комедии, Размер: 744.41 МБ, Здоровье: 0%

Anonymous

0
0|0

30
0

01 апр 2014, 09:36

Anonymous Перейти к последнему сообщению

В этой теме нет новых непрочитанных сообщений. Скачать торрент Проверен (Melodic Hard Rock) Blind Date-Blind Date - 2004, MP3 (tracks), 320 kbps

в форуме AOR (Melodic Hard Rock, Arena rock), Размер: 93.38 МБ, Здоровье: 0%

Anonymous

0
0|0

0
0

08 окт 2016, 01:13

Anonymous Перейти к последнему сообщению

В этой теме нет новых непрочитанных сообщений. Скачать торрент Свидание вслепую / Blind Date (1987) BDRip 720p

в форуме 720p | 1080p, Размер: 5.08 ГБ, Здоровье: 0%

Anonymous

0
0|0

34
0

21 янв 2014, 14:56

Anonymous Перейти к последнему сообщению



Сейчас этот форум просматривают: нет зарегистрированных пользователей и гости: 1


Вы не можете начинать темы
Вы не можете отвечать на сообщения
Вы не можете редактировать свои сообщения
Вы не можете удалять свои сообщения
Вы не можете добавлять вложения

Перейти:  

!ВНИМАНИЕ!
 Ресурс не предоставляет электронные версии произведений, а занимается лишь коллекционированием и каталогизацией ссылок, присылаемых и публикуемых на форуме нашими читателями. Если вы являетесь правообладателем какого-либо представленного материала и не желаете чтобы ссылка на него находилась в нашем каталоге, свяжитесь с нами и мы незамедлительно удалим её. Файлы для обмена на трекере предоставлены пользователями сайта, и администрация не несёт ответственности за их содержание. Просьба не заливать файлы, защищенные авторскими правами, а также файлы нелегального содержания!