На всех торрентах на трекере установлена скидка на скачивание в размере 100 процентов(а).
 Возможность скачивания торрента НЕ зависит от ограничений при низком ратио, низком аплоаде, требуемом ратио или требуемом аплоаде.


Начать новую тему Ответить на тему
Статистика раздачи
Размер: 11.98 ГБ | Добавлен: 01 авг 2013, 17:37 | Скачали: 137
Сидеров: 32  [0 байт/сек]    Личеров: 10  [0 байт/сек]
Пред. тема | След. тема 

Автор
Сообщение

СообщениеДобавлено: 01 авг 2013, 17:37 

Название: Успеть до полуночи
Оригинальное название: Midnight Run
Год выхода: 1988
Жанр: Боевик, триллер, комедия, криминал, приключения
Режиссер: Мартин Брест

В ролях: Роберт Де Ниро, Чарльз Гродин, Яфет Котто, Джон Эштон, Дэннис Фарина, Джо Пантолиано, Ричард Фороньи, Роберт Миранда, Джек Кехо, Венди Филлипс, Филип Бэйкер Холл, Мэри Гиллис, Джон Тоулс-Бей, Стэнли Уайт, Скотт МакЭфи, Лоис Смит, Фрэн Брил, Том МакКлейстер, Томас Дж. Хейджбок, Линда Маргулес, Майкл Д. Гейнсборо, Джон Хэммил, Лу Фелдер, Камерон Милцер, Соня М. Робертс, Фрэнк Пеше

О фильме:
Джек Уолш - опытный профессионал, мастер своего дела. Когда-то он служил в полиции, а теперь занимается частным сыском. Его специализация - операции по поимке беглых преступников. В этот раз Джек занят поисками Джонатана Мардукаса, известного под кличкой «Герцог». Мардукас, скромный и интеллигентный бухгалтер, умудрился украсть у мафии 15 миллионов долларов. По договоренности Джек должен поймать «Герцога», заковать в наручники и доставить на самолете из Нью-Йорка в Лос-Анджелес в условленный срок. За это Уолш получит целых сто тысяч долларов.
Для искушенного «охотника за головами» подобное задание - сущий пустяк. Но Джек не учел, что помимо него за Мардукасом активно охотятся гангстеры, ФБР и вероломный коллега-конкурент. Более того, Мардукас панически боится летать и Джеку предстоит везти Герцога через всю Америку.

Выпущено: США / City Light Films, Universal Pictures
Продолжительность: 02:06:15
Перевод: Профессиональный многоголосый, авторский

Кодек: MPEG-4 AVC
Качество: HD-DVDRip 1080p
Видео: 1920x1040 23,976 fps, 11407 kbps
Звук:
Russian: AC3, 448 Kbps (6 ch) Профессиональный многоголосый
Russian: AC3, 448 Kbps (6 ch) Авторский (Л. Володарский)
Russian: AC3, 448 Kbps (6 ch) Авторский (А. Михалев)
Ukrainian: AC3, 384 Kbps (6 ch) Профессиональный многоголосый (ICTV)
English: AC3, 448 Kbps (6 ch) Original
Субтитры: Russian, English
Семпл
Общее
Уникальный идентификатор : 232817929799734165295997599540271500709 (0xAF271A2DA7EFE715896698F56955CDA5)
Полное имя : Midnight.Run.1988.х264.HDDVDRip.1080р.mkv
Формат : Matroska
Версия формата : Version 4 / Version 2
Размер файла : 12,0 Гбайт
Продолжительность : 2 ч. 6 м.
Общий поток : 13,6 Мбит/сек
Название фильма : ☭WIDDER☭
Дата кодирования : UTC 2013-08-01 11:57:07
Программа кодирования : mkvmerge v6.3.0 ('You can't stop me!') built on Jun 28 2013 20:09:41
Библиотека кодирования : libebml v1.3.0 + libmatroska v1.4.0

Видео
Идентификатор : 1
Формат : AVC
Формат/Информация : Advanced Video Codec
Профиль формата : High@L4.1
Параметр CABAC формата : Да
Параметр ReFrames формата : 4 кадра
Идентификатор кодека : V_MPEG4/ISO/AVC
Продолжительность : 2 ч. 6 м.
Битрейт : 11,4 Мбит/сек
Ширина : 1920 пикселей
Высота : 1040 пикселей
Соотношение сторон : 1,85:1
Режим частоты кадров : Постоянный
Частота кадров : 23,976 кадра/сек
Цветовое пространство : YUV
Субдискретизация насыщенности : 4:2:0
Битовая глубина : 8 бит
Тип развёртки : Прогрессивная
Бит/(Пиксели*Кадры) : 0.238
Размер потока : 9,83 Гбайт (82%)
Заголовок : Успеть до полуночи / Midnight Run (1988)
Библиотека кодирования : x264 core 135 r2345 f0c1c53
Настройки программы : cabac=1 / ref=4 / deblock=1:-3:-3 / analyse=0x3:0x133 / me=umh / subme=11 / psy=1 / psy_rd=1.00:0.00 / mixed_ref=1 / me_range=48 / chroma_me=1 / trellis=2 / 8x8dct=1 / cqm=0 / deadzone=21,11 / fast_pskip=0 / chroma_qp_offset=-2 / threads=12 / lookahead_threads=1 / sliced_threads=0 / nr=0 / decimate=1 / interlaced=0 / bluray_compat=0 / constrained_intra=0 / bframes=6 / b_pyramid=2 / b_adapt=2 / b_bias=0 / direct=3 / weightb=1 / open_gop=0 / weightp=2 / keyint=240 / keyint_min=23 / scenecut=40 / intra_refresh=0 / rc_lookahead=60 / rc=2pass / mbtree=0 / bitrate=11407 / ratetol=1.0 / qcomp=0.60 / qpmin=0 / qpmax=69 / qpstep=4 / cplxblur=20.0 / qblur=0.5 / vbv_maxrate=50000 / vbv_bufsize=60000 / nal_hrd=none / ip_ratio=1.40 / pb_ratio=1.30 / aq=2:0.80
Язык : English
Default : Да
Forced : Нет

Аудио #1
Идентификатор : 2
Формат : AC-3
Формат/Информация : Audio Coding 3
Расширение режима : CM (complete main)
Параметр Endianness формата : Big
Идентификатор кодека : A_AC3
Продолжительность : 2 ч. 6 м.
Вид битрейта : Постоянный
Битрейт : 448 Кбит/сек
Каналы : 6 каналов
Расположение каналов : Front: L C R, Side: L R, LFE
Частота : 48,0 КГц
Битовая глубина : 16 бит
Метод сжатия : С потерями
Размер потока : 405 Мбайт (3%)
Заголовок : AC3, 448 Kbps (6 ch) Профессиональный многоголосый
Язык : Russian
Default : Да
Forced : Нет

Аудио #2
Идентификатор : 3
Формат : AC-3
Формат/Информация : Audio Coding 3
Расширение режима : CM (complete main)
Параметр Endianness формата : Big
Идентификатор кодека : A_AC3
Продолжительность : 2 ч. 6 м.
Вид битрейта : Постоянный
Битрейт : 448 Кбит/сек
Каналы : 6 каналов
Расположение каналов : Front: L C R, Side: L R, LFE
Частота : 48,0 КГц
Битовая глубина : 16 бит
Метод сжатия : С потерями
Размер потока : 405 Мбайт (3%)
Заголовок : AC3, 448 Kbps (6 ch) Авторский (Л. Володарский)
Язык : Russian
Default : Нет
Forced : Нет

Аудио #3
Идентификатор : 4
Формат : AC-3
Формат/Информация : Audio Coding 3
Расширение режима : CM (complete main)
Параметр Endianness формата : Big
Идентификатор кодека : A_AC3
Продолжительность : 2 ч. 6 м.
Вид битрейта : Постоянный
Битрейт : 448 Кбит/сек
Каналы : 6 каналов
Расположение каналов : Front: L C R, Side: L R, LFE
Частота : 48,0 КГц
Битовая глубина : 16 бит
Метод сжатия : С потерями
Размер потока : 405 Мбайт (3%)
Заголовок : AC3, 448 Kbps (6 ch) Авторский (А. Михалев)
Язык : Russian
Default : Нет
Forced : Нет

Аудио #4
Идентификатор : 5
Формат : AC-3
Формат/Информация : Audio Coding 3
Расширение режима : CM (complete main)
Параметр Endianness формата : Big
Идентификатор кодека : A_AC3
Продолжительность : 2 ч. 6 м.
Вид битрейта : Постоянный
Битрейт : 384 Кбит/сек
Каналы : 6 каналов
Расположение каналов : Front: L C R, Side: L R, LFE
Частота : 48,0 КГц
Битовая глубина : 16 бит
Метод сжатия : С потерями
Размер потока : 347 Мбайт (3%)
Заголовок : AC3, 384 Kbps (6 ch) Профессиональный многоголосый
Язык : Ukrainian
Default : Нет
Forced : Нет

Аудио #5
Идентификатор : 6
Формат : AC-3
Формат/Информация : Audio Coding 3
Расширение режима : CM (complete main)
Параметр Endianness формата : Big
Идентификатор кодека : A_AC3
Продолжительность : 2 ч. 6 м.
Вид битрейта : Постоянный
Битрейт : 448 Кбит/сек
Каналы : 6 каналов
Расположение каналов : Front: L C R, Side: L R, LFE
Частота : 48,0 КГц
Битовая глубина : 16 бит
Метод сжатия : С потерями
Размер потока : 405 Мбайт (3%)
Заголовок : AC3, 448 Kbps (6 ch) Original
Язык : English
Default : Нет
Forced : Нет

Текст #1
Идентификатор : 7
Формат : PGS
Режим смешивания : zlib
Идентификатор кодека : S_HDMV/PGS
Идентификатор кодека/Информация : The same subtitle format used on BDs/HD-DVDs
Язык : Russian
Default : Нет
Forced : Нет

Текст #2
Идентификатор : 8
Формат : PGS
Режим смешивания : zlib
Идентификатор кодека : S_HDMV/PGS
Идентификатор кодека/Информация : The same subtitle format used on BDs/HD-DVDs
Язык : English
Default : Нет
Forced : Нет

Меню
00:00:00.000 : en:Main Titles
00:05:57.934 : en:The Duke
00:12:28.934 : en:Big Score
00:18:51.434 : en:I Can't Fly
00:27:16.768 : en:Double-Cross
00:32:13.935 : en:Train Trouble
00:39:21.435 : en:The Boys on the Bus
00:49:01.102 : en:Babysitting Money
00:55:52.269 : en:Where Are You?
01:00:27.437 : en:Chorizo and Eggs
01:05:51.937 : en:Target Practice
01:12:45.738 : en:Afraid of Flying?
01:20:20.738 : en:Litmus Configuration
01:25:37.905 : en:Hoboes
01:30:41.905 : en:A Merry Chase
01:38:47.672 : en:Dealing With the Feds
01:43:21.172 : en:The Plan
01:50:30.006 : en:The Hand-Off
01:56:30.173 : en:Welcome to L.A.
02:01:20.673 : en:End Titles
02:06:10.740 : en:Chapter 21
__________________________________________________
----[Information] [30.07.2013 16:36:13] raw [info]: 1920x1040p 1:1 @ 24000/1001 fps (cfr)
---[Information] [30.07.2013 16:36:13] x264 [info]: using SAR=1/1
---[Information] [30.07.2013 16:36:13] x264 [info]: using cpu capabilities: MMX2 SSE2Fast SSSE3 SSE4.2
---[Information] [30.07.2013 16:36:13] x264 [info]: profile High, level 4.1
---[Information] [01.08.2013 13:47:36] x264 [info]: frame I:1281 Avg QP:18.55 size:177869
---[Information] [01.08.2013 13:47:36] x264 [info]: frame P:39947 Avg QP:20.63 size: 88079
---[Information] [01.08.2013 13:47:36] x264 [info]: frame B:140396 Avg QP:22.84 size: 50188
---[Information] [01.08.2013 13:47:36] x264 [info]: consecutive B-frames: 1.3% 3.7% 4.4% 31.3% 11.3% 47.0% 1.0%
---[Information] [01.08.2013 13:47:36] x264 [info]: mb I I16..4: 1.5% 94.7% 3.8%
---[Information] [01.08.2013 13:47:36] x264 [info]: mb P I16..4: 0.6% 23.7% 0.6% P16..4: 30.7% 33.7% 7.3% 0.4% 0.0% skip: 3.1%
---[Information] [01.08.2013 13:47:36] x264 [info]: mb B I16..4: 0.1% 4.7% 0.1% B16..8: 43.9% 20.3% 2.5% direct:11.8% skip:16.6% L0:43.0% L1:40.0% BI:17.0%
---[Information] [01.08.2013 13:47:36] x264 [info]: 8x8 transform intra:95.8% inter:68.3%
---[Information] [01.08.2013 13:47:36] x264 [info]: direct mvs spatial:98.0% temporal:2.0%
---[Information] [01.08.2013 13:47:36] x264 [info]: coded y,uvDC,uvAC intra: 95.8% 79.1% 24.6% inter: 49.5% 37.1% 1.1%
---[Information] [01.08.2013 13:47:36] x264 [info]: i16 v,h,dc,p: 15% 11% 4% 70%
---[Information] [01.08.2013 13:47:36] x264 [info]: i8 v,h,dc,ddl,ddr,vr,hd,vl,hu: 9% 8% 13% 9% 12% 12% 11% 12% 13%
---[Information] [01.08.2013 13:47:36] x264 [info]: i4 v,h,dc,ddl,ddr,vr,hd,vl,hu: 11% 6% 4% 8% 15% 17% 15% 12% 12%
---[Information] [01.08.2013 13:47:36] x264 [info]: i8c dc,h,v,p: 27% 32% 23% 18%
---[Information] [01.08.2013 13:47:36] x264 [info]: Weighted P-Frames: Y:3.2% UV:1.3%
---[Information] [01.08.2013 13:47:36] x264 [info]: ref P L0: 48.3% 10.4% 24.8% 15.4% 1.0% 0.0%
---[Information] [01.08.2013 13:47:36] x264 [info]: ref B L0: 84.4% 12.1% 3.5%
---[Information] [01.08.2013 13:47:36] x264 [info]: ref B L1: 91.7% 8.3%
---[Information] [01.08.2013 13:47:36] x264 [info]: kb/s:11397.66




Релиз от:
загрузка...
Правила, инструкции, FAQ!!!
Торрент  Добавлен [01 авг 2013, 17:37] Скачать торрент
Скачать торрент
[ Размер 60.34 КБ / Просмотров 7 ]

Статус  
 
Размер  11.98 ГБ
Приватный: Нет (DHT включён)
.torrent скачан  137
Как залить торрент? | Как скачать Torrent? | Как смотреть и слушать онлайн?  


     Отправить личное сообщение
   
Страница 1 из 1
Показать сообщения за:  Поле сортировки  
Начать новую тему Ответить на тему

   Похожие торренты   Автор   Ответы   Просмотры   Последнее сообщение 
В этой теме нет новых непрочитанных сообщений. Скачать торрент Проверен Успеть до полуночи / Midnight Run (1988) HD-DVDRip [576p] iPad

в форуме Фильмы для iPod, iPhone, iPad, Размер: 4 ГБ, Здоровье: 100%

Anonymous

0
3|1

26
0

13 сен 2015, 01:10

Anonymous Перейти к последнему сообщению

В этой теме нет новых непрочитанных сообщений. Скачать торрент Проверен Успеть до полуночи / Midnight Run (1988) HDRip | Р

в форуме Боевики, Размер: 1.45 ГБ, Здоровье: 100%

Гость

0
162|14

136
338

25 апр 2015, 22:25

Гость Перейти к последнему сообщению

В этой теме нет новых непрочитанных сообщений. Скачать торрент Проверен Успеть до полуночи / Midnight Run (1988) BDRip 720p | P,A

в форуме 720p | 1080p, Размер: 10.3 ГБ, Здоровье: 100%

Гость

0
108|56

127
192

25 апр 2015, 22:28

Гость Перейти к последнему сообщению

В этой теме нет новых непрочитанных сообщений. Скачать торрент Проверен [iPad] Успеть до полуночи / Midnight Run (Мартин Брест / Martin Brest) [1988, боевик, триллер, комедия, BDRip, 1024х]

в форуме Фильмы для iPod, iPhone, iPad, Размер: 3.52 ГБ, Здоровье: 100%

Гость

0
8|1

13
0

12 май 2015, 00:11

Гость Перейти к последнему сообщению

В этой теме нет новых непрочитанных сообщений. Скачать торрент Проверен Майер Стефани - Солнце полуночи (Midnight Sun) [Ольга, 2009, 128kbps]

в форуме Зарубежная фантастика, фэнтези, мистика, ужасы, Размер: 634.48 МБ, Здоровье: 100%

Anonymous

0
10|3

0
0

11 сен 2016, 10:50

Anonymous Перейти к последнему сообщению



Сейчас этот форум просматривают: нет зарегистрированных пользователей и гости: 2


Вы не можете начинать темы
Вы не можете отвечать на сообщения
Вы не можете редактировать свои сообщения
Вы не можете удалять свои сообщения
Вы не можете добавлять вложения

Перейти:  

!ВНИМАНИЕ!
 Ресурс не предоставляет электронные версии произведений, а занимается лишь коллекционированием и каталогизацией ссылок, присылаемых и публикуемых на форуме нашими читателями. Если вы являетесь правообладателем какого-либо представленного материала и не желаете чтобы ссылка на него находилась в нашем каталоге, свяжитесь с нами и мы незамедлительно удалим её. Файлы для обмена на трекере предоставлены пользователями сайта, и администрация не несёт ответственности за их содержание. Просьба не заливать файлы, защищенные авторскими правами, а также файлы нелегального содержания!