На всех торрентах на трекере установлена скидка на скачивание в размере 100 процентов(а).
 Возможность скачивания торрента НЕ зависит от ограничений при низком ратио, низком аплоаде, требуемом ратио или требуемом аплоаде.


Начать новую тему Ответить на тему
Статистика раздачи
Размер: 3.78 ГБ | Добавлен: 01 авг 2013, 08:40 | Скачали: 0
Сидеров: 0  [0 байт/сек]    Личеров: 0  [0 байт/сек]
Пред. тема | След. тема 

Автор
Сообщение

СообщениеДобавлено: 01 авг 2013, 08:40 

Название: Четвертый вид
Оригинальное название: The Fourth Kind
Год выхода: 2009
Жанр: ужасы, фантастика, триллер, детектив
Режиссер: Олатунде Осунсанми

В ролях: Милла Йовович, Элиас Котеас, Уилл Пэттон, Энзо Силенти, Кори Джонсон, Хаким Кае-Казим, Алиша Ситон, Дафна Александр, Мия МакКенна-Брюс, Тайн Рафаэли

О фильме:
На территории Аляски происходят необъяснимые исчезновения людей. Несмотря на все усилия ФБР, расследования зашли в тупик, и тайна, по-прежнему, не раскрыта. Психиатр Эбигейл Тайлер начинает записывать на видео беседы со своими пациентами и обнаруживает нечто очень страшное и пугающе…

• Финальные титры не включают стандартных надписей 'Все персонажи и события фильмы являются вымыслом...« или »Фильм основан на реальных событиях...'.
• Согласно рекламным материалам компании Universal, фильм рассказывает о психологе по имени Эбигейл Тайлер, которая обследовала больных пациентов в Номе. Однако, главный лицензиар штата Аляска Ян Мэйс сказала, что не может найти записи об Эбигейл Тайлер, и она никогда не получала лицензию на ведение практики в этом штате. Рон Адлер, исполнительный директор Психиатрического Института Аляски и Деннис Дилляр, президент Психологической Ассоциации Аляски, сказали, что они никогда не слышали об Эбигейл Тайлер. Веб-сайты «Психиатрический Журнал Аляски» и «Новостной архив Аляски», содержащие ссылки на Тайлер, были созданы продюсерами картины, но затем были удалены из-за подделывания, когда обнаружилось, что они были созданы за месяц до премьеры фильма, а один из авторов новостных статей заявила, что она никогда их не писала.
• Разыгранные по ходу действия интервью возмутили семьи реально пропавших без вести жителей города Ном, Аляска. Мелани Эдвардс, вице-президент Kawerak Inc. (общественной организации, представляющей племенные народы Аляски) описала фильм, как «нечувствительный к членам семей людей, пропавших без вести в Номе за эти годы». Но студия Universal отказалась встречаться как с организацией, так и с местными журналистами.
• В «роли» Нома выступил город Сквамиш, Британская Колумбия, Канада.




Страна: Германия, США
Студия: Chambara Pictures
Продолжительность: 01:38:00
Перевод: Дублированный


Качество: BDRip 720p
Видео: AVC, 1280x544 (2.35:1) at 23.976 fps, AVC at 4 428 kbps avg, 0.260 bit/pixel, crf
Аудио #1: 48 kHz, AC3 Dolby Digital, 3/2 (L,C,R,l,r) + LFE ch, 448.00 kbps - Русский |Дубляж|
Аудио #2: 48 kHz, AC3 Dolby Digital, 3/2 (L,C,R,l,r) + LFE ch, 448.00 kbps - English |Original|
Аудио #3: 48 kHz, AC3, 2/0 (L,R) ch, 192.00 kbps - English |Commentary|
Субтитры: Русский (Notabenoid, Переводчики: Lisok, lex72, Treshka, DEAF_DNEPROSOM, parker), Английский - SRT
Дополнительно: сохранены оригинальные чаптеры как на Blu-ray.

Автор рипа:

General
Unique ID : 216682797944757386296478639333840975273 (0xA30396C21ED057468CE007B53AFEF5A9)
Complete name : C:torrentsThe Fourth Kind.2009.720p.BluRay.x264-LEONARDO.mkv
Format : Matroska
Format version : Version 2
File size : 3.78 GiB
Duration : 1h 38mn
Overall bit rate : 5 519 Kbps
Movie name : -=LEONARDO=-
Encoded date : UTC 2013-07-31 22:07:08
Writing application : mkvmerge v5.5.0 ('Healer') built on Apr 6 2012 21:43:24
Writing library : libebml v1.2.3 + libmatroska v1.3.0

Video
ID : 1
Format : AVC
Format/Info : Advanced Video Codec
Format profile : High@L4.1
Format settings, CABAC : Yes
Format settings, ReFrames : 8 frames
Codec ID : V_MPEG4/ISO/AVC
Duration : 1h 38mn
Bit rate : 4 321 Kbps
Width : 1 280 pixels
Height : 544 pixels
Display aspect ratio : 2.35:1
Frame rate mode : Constant
Frame rate : 23.976 fps
Color space : YUV
Chroma subsampling : 4:2:0
Bit depth : 8 bits
Scan type : Progressive
Bits/(Pixel*Frame) : 0.259
Stream size : 2.96 GiB (78%)
Title : Четвертый вид / The Fourth Kind (2009)
Writing library : x264 core 125 r2208 d9d2288
Encoding settings : cabac=1 / ref=8 / deblock=1:-1:-1 / analyse=0x3:0x133 / me=umh / subme=10 / psy=1 / psy_rd=1.00:0.05 / mixed_ref=1 / me_range=32 / chroma_me=1 / trellis=2 / 8x8dct=1 / cqm=0 / deadzone=21,11 / fast_pskip=0 / chroma_qp_offset=-3 / threads=3 / lookahead_threads=1 / sliced_threads=0 / nr=0 / decimate=1 / interlaced=0 / bluray_compat=0 / constrained_intra=0 / bframes=8 / b_pyramid=2 / b_adapt=2 / b_bias=0 / direct=1 / weightb=1 / open_gop=0 / weightp=2 / keyint=250 / keyint_min=23 / scenecut=40 / intra_refresh=0 / rc=crf / mbtree=0 / crf=17.5 / qcomp=0.60 / qpmin=0 / qpmax=69 / qpstep=4 / ip_ratio=1.40 / pb_ratio=1.30 / aq=2:1.00
Language : English
Default : Yes
Forced : No

Audio #1
ID : 2
Format : AC-3
Format/Info : Audio Coding 3
Mode extension : CM (complete main)
Format settings, Endianness : Big
Codec ID : A_AC3
Duration : 1h 38mn
Bit rate mode : Constant
Bit rate : 448 Kbps
Channel(s) : 6 channels
Channel positions : Front: L C R, Side: L R, LFE
Sampling rate : 48.0 KHz
Bit depth : 16 bits
Compression mode : Lossy
Stream size : 314 MiB (8%)
Title : Dub
Language : Russian
Default : Yes
Forced : No

Audio #2
ID : 3
Format : AC-3
Format/Info : Audio Coding 3
Mode extension : CM (complete main)
Format settings, Endianness : Big
Codec ID : A_AC3
Duration : 1h 38mn
Bit rate mode : Constant
Bit rate : 448 Kbps
Channel(s) : 6 channels
Channel positions : Front: L C R, Side: L R, LFE
Sampling rate : 48.0 KHz
Bit depth : 16 bits
Compression mode : Lossy
Stream size : 314 MiB (8%)
Language : English
Default : No
Forced : No

Audio #3
ID : 4
Format : AC-3
Format/Info : Audio Coding 3
Format profile : Dolby Digital
Mode extension : CM (complete main)
Format settings, Endianness : Big
Codec ID : A_AC3
Duration : 1h 38mn
Bit rate mode : Constant
Bit rate : 192 Kbps
Channel(s) : 2 channels
Channel positions : Front: L R
Sampling rate : 48.0 KHz
Bit depth : 16 bits
Compression mode : Lossy
Stream size : 135 MiB (3%)
Title : Commentary
Language : English
Default : No
Forced : No

Text #1
ID : 5
Format : UTF-8
Codec ID : S_TEXT/UTF8
Codec ID/Info : UTF-8 Plain Text
Title : Переводчики (Notabenoid): Lisok, lex72, Treshka, DEAF_DNEPROSOM, parker
Language : Russian
Default : No
Forced : No

Text #2
ID : 6
Format : UTF-8
Codec ID : S_TEXT/UTF8
Codec ID/Info : UTF-8 Plain Text
Language : English
Default : No
Forced : No

Menu
00:00:00.000 : en:00:00:00.000
00:01:42.227 : en:00:01:42.227
00:08:16.705 : en:00:08:16.705
00:13:53.207 : en:00:13:53.207
00:19:54.777 : en:00:19:54.777
00:24:25.297 : en:00:24:25.297
00:28:32.961 : en:00:28:32.961
00:33:37.474 : en:00:33:37.474
00:36:56.756 : en:00:36:56.756
00:43:03.498 : en:00:43:03.498
00:47:29.680 : en:00:47:29.680
00:52:42.576 : en:00:52:42.576
00:56:45.444 : en:00:56:45.444
01:01:00.782 : en:01:01:00.782
01:05:16.454 : en:01:05:16.454
01:09:48.351 : en:01:09:48.351
01:14:15.242 : en:01:14:15.242
01:20:38.375 : en:01:20:38.375
01:27:30.537 : en:01:27:30.537
01:32:21.369 : en:01:32:21.369







загрузка...
Правила, инструкции, FAQ!!!
Торрент  Добавлен [01 авг 2013, 08:40] Скачать торрент
Скачать торрент
[ Размер 19.44 КБ / Просмотров 11 ]

Статус  
 
Размер  3.78 ГБ
Приватный: Нет (DHT включён)
.torrent скачан  0
Как залить торрент? | Как скачать Torrent? | Как смотреть и слушать онлайн?  


     Отправить личное сообщение
   
Страница 1 из 1
Показать сообщения за:  Поле сортировки  
Начать новую тему Ответить на тему

   Похожие торренты   Автор   Ответы   Просмотры   Последнее сообщение 
В этой теме нет новых непрочитанных сообщений. Скачать торрент Я – Четвертый / I Am Number Four (2011) BDRip 720p | Лицензия

в форуме 720p | 1080p, Размер: 5.89 ГБ, Здоровье: 0%

Anonymous

0
0|0

27
0

21 дек 2013, 12:11

Anonymous Перейти к последнему сообщению

В этой теме нет новых непрочитанных сообщений. Скачать торрент Проверен (Rock) Pound Links - The Fourth Kind + Special - 2015, MP3, 320 kbps

в форуме Русский Рок, Размер: 255.99 МБ, Здоровье: 0%

Anonymous

0
0|0

1
0

22 авг 2016, 11:50

Anonymous Перейти к последнему сообщению

В этой теме нет новых непрочитанных сообщений. Скачать торрент Проверен Dream Theater - Breaking The Fourth Wall [2014, Progressive Metal, BDRip 720p]

в форуме Концерты (HD-Video), Размер: 10.16 ГБ, Здоровье: 100%

Anonymous

0
51|27

56
6

29 апр 2015, 19:22

Anonymous Перейти к последнему сообщению

В этой теме нет новых непрочитанных сообщений. Скачать торрент Проверен Metallica - Some Kind Of Monster [2014, Thrash Metal, Documentary, BDRip 720p]

в форуме Концерты (HD-Video), Размер: 5.46 ГБ, Здоровье: 100%

Anonymous

0
3|1

1
0

23 окт 2016, 13:33

Anonymous Перейти к последнему сообщению

В этой теме нет новых непрочитанных сообщений. Скачать торрент Я – Четвертый / I Am Number Four (2011) BDRip 1080p

в форуме 720p | 1080p, Размер: 7.76 ГБ, Здоровье: 100%

Anonymous

0
16|5

39
416

23 мар 2014, 20:18

Anonymous Перейти к последнему сообщению



Сейчас этот форум просматривают: нет зарегистрированных пользователей и гости: 4


Вы не можете начинать темы
Вы не можете отвечать на сообщения
Вы не можете редактировать свои сообщения
Вы не можете удалять свои сообщения
Вы не можете добавлять вложения

Перейти:  

!ВНИМАНИЕ!
 Ресурс не предоставляет электронные версии произведений, а занимается лишь коллекционированием и каталогизацией ссылок, присылаемых и публикуемых на форуме нашими читателями. Если вы являетесь правообладателем какого-либо представленного материала и не желаете чтобы ссылка на него находилась в нашем каталоге, свяжитесь с нами и мы незамедлительно удалим её. Файлы для обмена на трекере предоставлены пользователями сайта, и администрация не несёт ответственности за их содержание. Просьба не заливать файлы, защищенные авторскими правами, а также файлы нелегального содержания!