На всех торрентах на трекере установлена скидка на скачивание в размере 100 процентов(а).
 Возможность скачивания торрента НЕ зависит от ограничений при низком ратио, низком аплоаде, требуемом ратио или требуемом аплоаде.


Начать новую тему Ответить на тему
Статистика раздачи
Размер: 8.04 ГБ | Добавлен: 31 июл 2013, 11:37 | Скачали: 0
Сидеров: 0  [0 байт/сек]    Личеров: 0  [0 байт/сек]
Пред. тема | След. тема 

Автор
Сообщение

СообщениеДобавлено: 31 июл 2013, 11:37 

Информация о фильме
    Русское название: Монти Пайтон и священный Грааль
    Оригинальное название: Monty Python and the Holy Grail
    Год выхода: 1975
    Жанр: Комедия, приключения
    Режиссер: Терри Гиллиам, Терри Джонс
    Выпущено: Великобритания
    Продолжительность: 02:05:18
    Перевод: Многоголосый закадровый (R5, VSH), Одноголосый закадровый (А. Медведев, В. Завгородний, С. Козлов, В. Дохалов, И. Кукушкин (aka Ёж Ушастый))
    В ролях: Грэм Чэпмен, Джон Клиз, Эрик Айдл, Майкл Пэлин, Терри Джонс, Терри Гиллиам, Конни Бут, Кэрол Кливлэнд, Нил Иннес, Би Даффелл


Сюжет фильма
    Кино, которое навсегда изменило облик жанра комедии. Однако первым и лучшим в славном ряду был именно этот фильм, который сделали шестеро сумасшедших британских гениев скетча.


Файл
    Качество: BDRip 1080p (DVD9) (исходник Blu-ray Remux)
    Видео: 1800x1080, 9790 Кбит/сек, 23,976 кадр/сек, AVC, x264, High@L4.1, 1.667, 0.210 Бит/[Пиксели*Кадры], 2pass
    Аудио 1: AC-3, 448 Кбит/сек, 6 канала(ов), 48,0 КГц - Многоголосый закадровый (R5) / Русский
    Аудио 2: AC-3, 192 Кбит/сек, 2 канала(ов), 48,0 КГц - Многоголосый закадровый (VHS) / Русский
    Аудио 3: AC-3, 448 Кбит/сек, 6 канала(ов), 48,0 КГц - Одноголосый закадровый (Алексей Медведев) / Русский
    Аудио 4: AC-3, 448 Кбит/сек, 6 канала(ов), 48,0 КГц - Одноголосый закадровый (Владимир Завгородний) / Русский
    Аудио 5: AC-3, 192 Кбит/сек, 2 канала(ов), 48,0 КГц - Одноголосый закадровый (Сергей Козлов) / Русский
    Аудио 6: AC-3, 192 Кбит/сек, 2 канала(ов), 48,0 КГц - Одноголосый закадровый (Вартан Дохалов) / Русский
    Аудио 7: AC-3, 192 Кбит/сек, 2 канала(ов), 48,0 КГц - Одноголосый закадровый (Игорь Кукушкин / aka Ёж Ушастый) / Русский
    Аудио 8: AC-3, 448 Кбит/сек, 6 канала(ов), 48,0 КГц - Оригинал / Английский
    Субтитры: Русские | Полные (2 вида)
    Чаптеры: Есть



Релиз Группа | Автор Рипа:



Format : Matroska
Format version : Version 4 / Version 2
File size : 8.04 GiB
Duration : 1h 32mn
Overall bit rate : 12.5 Mbps
Movie name : Монти Пайтон и священный Грааль.(1975).BDRip.1080p.(DVD9).[NoLimits-Team]
Encoded date : UTC 2013-07-31 05:51:48
Writing application : mkvmerge v6.3.0 ('You can't stop me!') built on Jun 28 2013 20:09:41
Writing library : libebml v1.3.0 + libmatroska v1.4.0

Video
ID : 1
Format : AVC
Format/Info : Advanced Video Codec
Format profile : High@L4.1
Format settings, CABAC : Yes
Format settings, ReFrames : 4 frames
Codec ID : V_MPEG4/ISO/AVC
Duration : 1h 32mn
Bit rate : 9 790 Kbps
Width : 1 800 pixels
Height : 1 080 pixels
Display aspect ratio : 1.667
Frame rate mode : Constant
Frame rate : 23.976 fps
Color space : YUV
Chroma subsampling : 4:2:0
Bit depth : 8 bits
Scan type : Progressive
Bits/(Pixel*Frame) : 0.210
Stream size : 6.23 GiB (78%)
Title : Монти Пайтон и священный Грааль.(1975).BDRip.1080p.(DVD9).[NoLimits-Team]
Writing library : x264 core 135 r2345 f0c1c53
Encoding settings : cabac=1 / ref=4 / deblock=0:0:0 / analyse=0x3:0x133 / me=umh / subme=11 / psy=1 / psy_rd=1.00:0.00 / mixed_ref=1 / me_range=32 / chroma_me=1 / trellis=2 / 8x8dct=1 / cqm=0 / deadzone=21,11 / fast_pskip=0 / chroma_qp_offset=-2 / threads=12 / lookahead_threads=2 / sliced_threads=0 / nr=0 / decimate=1 / interlaced=0 / bluray_compat=0 / constrained_intra=0 / bframes=8 / b_pyramid=2 / b_adapt=2 / b_bias=0 / direct=3 / weightb=1 / open_gop=0 / weightp=2 / keyint=240 / keyint_min=23 / scenecut=40 / intra_refresh=0 / rc=2pass / mbtree=0 / bitrate=9790 / ratetol=2.0 / qcomp=0.60 / qpmin=0 / qpmax=69 / qpstep=4 / cplxblur=20.0 / qblur=0.5 / ip_ratio=1.40 / pb_ratio=1.30 / aq=1:1.00
Language : English
Default : Yes
Forced : No

Audio #1
ID : 2
Format : AC-3
Format/Info : Audio Coding 3
Mode extension : CM (complete main)
Format settings, Endianness : Big
Codec ID : A_AC3
Duration : 1h 32mn
Bit rate mode : Constant
Bit rate : 448 Kbps
Channel(s) : 6 channels
Channel positions : Front: L C R, Side: L R, LFE
Sampling rate : 48.0 KHz
Bit depth : 16 bits
Compression mode : Lossy
Stream size : 295 MiB (4%)
Title : Многоголосый закадровый (R5)
Language : Russian
Default : Yes
Forced : No

Audio #2
ID : 3
Format : AC-3
Format/Info : Audio Coding 3
Mode extension : CM (complete main)
Format settings, Endianness : Big
Codec ID : A_AC3
Duration : 1h 32mn
Bit rate mode : Constant
Bit rate : 192 Kbps
Channel(s) : 2 channels
Channel positions : Front: L R
Sampling rate : 48.0 KHz
Bit depth : 16 bits
Compression mode : Lossy
Stream size : 127 MiB (2%)
Title : Многоголосый закадровый (VHS)
Language : Russian
Default : No
Forced : No

Audio #3
ID : 4
Format : AC-3
Format/Info : Audio Coding 3
Mode extension : CM (complete main)
Format settings, Endianness : Big
Codec ID : A_AC3
Duration : 1h 32mn
Bit rate mode : Constant
Bit rate : 448 Kbps
Channel(s) : 6 channels
Channel positions : Front: L C R, Side: L R, LFE
Sampling rate : 48.0 KHz
Bit depth : 16 bits
Compression mode : Lossy
Stream size : 295 MiB (4%)
Title : Одноголосый закадровый (Алексей Медведев)
Language : Russian
Default : No
Forced : No

Audio #4
ID : 5
Format : AC-3
Format/Info : Audio Coding 3
Mode extension : CM (complete main)
Format settings, Endianness : Big
Codec ID : A_AC3
Duration : 1h 32mn
Bit rate mode : Constant
Bit rate : 448 Kbps
Channel(s) : 6 channels
Channel positions : Front: L C R, Side: L R, LFE
Sampling rate : 48.0 KHz
Bit depth : 16 bits
Compression mode : Lossy
Stream size : 295 MiB (4%)
Title : Одноголосый закадровый (Владимир Завгородний)
Language : Russian
Default : No
Forced : No

Audio #5
ID : 6
Format : AC-3
Format/Info : Audio Coding 3
Mode extension : CM (complete main)
Format settings, Endianness : Big
Codec ID : A_AC3
Duration : 1h 32mn
Bit rate mode : Constant
Bit rate : 192 Kbps
Channel(s) : 2 channels
Channel positions : Front: L R
Sampling rate : 48.0 KHz
Bit depth : 16 bits
Compression mode : Lossy
Stream size : 127 MiB (2%)
Title : Одноголосый закадровый (Сергей Козлов)
Language : Russian
Default : No
Forced : No

Audio #6
ID : 7
Format : AC-3
Format/Info : Audio Coding 3
Mode extension : CM (complete main)
Format settings, Endianness : Big
Codec ID : A_AC3
Duration : 1h 32mn
Bit rate mode : Constant
Bit rate : 192 Kbps
Channel(s) : 2 channels
Channel positions : Front: L R
Sampling rate : 48.0 KHz
Bit depth : 16 bits
Compression mode : Lossy
Stream size : 127 MiB (2%)
Title : Одноголосый закадровый (Вартан Дохалов)
Language : Russian
Default : No
Forced : No

Audio #7
ID : 8
Format : AC-3
Format/Info : Audio Coding 3
Mode extension : CM (complete main)
Format settings, Endianness : Big
Codec ID : A_AC3
Duration : 1h 32mn
Bit rate mode : Constant
Bit rate : 192 Kbps
Channel(s) : 2 channels
Channel positions : Front: L R
Sampling rate : 48.0 KHz
Bit depth : 16 bits
Compression mode : Lossy
Stream size : 127 MiB (2%)
Title : Одноголосый закадровый (Игорь Кукушкин / aka Ёж Ушастый)
Language : Russian
Default : No
Forced : No

Audio #8
ID : 9
Format : AC-3
Format/Info : Audio Coding 3
Mode extension : CM (complete main)
Format settings, Endianness : Big
Codec ID : A_AC3
Duration : 1h 32mn
Bit rate mode : Constant
Bit rate : 448 Kbps
Channel(s) : 6 channels
Channel positions : Front: L C R, Side: L R, LFE
Sampling rate : 48.0 KHz
Bit depth : 16 bits
Compression mode : Lossy
Stream size : 295 MiB (4%)
Title : Оригинал / Английский
Language : English
Default : No
Forced : No

Text #1
ID : 10
Format : UTF-8
Codec ID : S_TEXT/UTF8
Codec ID/Info : UTF-8 Plain Text
Title : Русские (полные) v.1.
Language : Russian
Default : No
Forced : No

Text #2
ID : 11
Format : UTF-8
Codec ID : S_TEXT/UTF8
Codec ID/Info : UTF-8 Plain Text
Title : Русские (полные) v.2.
Language : Russian
Default : No
Forced : No

Menu
00:00:00.000 : :Chapter 01
00:03:36.299 : :Chapter 02
00:06:53.495 : :Chapter 03
00:08:49.153 : :Chapter 04
00:12:00.176 : :Chapter 05
00:16:30.821 : :Chapter 06
00:22:02.654 : :Chapter 07
00:23:42.630 : :Chapter 08
00:25:19.934 : :Chapter 09
00:29:11.165 : :Chapter 10
00:32:01.001 : :Chapter 11
00:35:36.842 : :Chapter 12
00:43:05.123 : :Chapter 13
00:44:31.001 : :Chapter 14
00:46:27.659 : :Chapter 15
00:53:37.422 : :Chapter 16
00:57:31.405 : :Chapter 17
01:00:33.630 : :Chapter 18
01:02:13.021 : :Chapter 19
01:04:24.110 : :Chapter 20
01:09:32.585 : :Chapter 21
01:12:02.859 : :Chapter 22
01:14:56.533 : :Chapter 23
01:18:00.926 : :Chapter 24
01:22:17.305 : :Chapter 25
01:24:26.603 : :Chapter 26
01:26:25.889 : :Chapter 27
01:28:09.743 : :Chapter 28



загрузка...
Правила, инструкции, FAQ!!!
Торрент  Добавлен [31 июл 2013, 11:37] Скачать торрент
Скачать торрент
[ Размер 40.65 КБ / Просмотров 5 ]

Статус  
 
Размер  8.04 ГБ
Приватный: Нет (DHT включён)
.torrent скачан  0
Как залить торрент? | Как скачать Torrent? | Как смотреть и слушать онлайн?  


     Отправить личное сообщение
   
Страница 1 из 1
Показать сообщения за:  Поле сортировки  
Начать новую тему Ответить на тему

   Похожие торренты   Автор   Ответы   Просмотры   Последнее сообщение 
В этой теме нет новых непрочитанных сообщений. Скачать торрент Проверен Монти Пайтон и священный Грааль / Monty Python and the Holy Grail (1975) BDRip [576p] iPad

в форуме Фильмы для iPod, iPhone, iPad, Размер: 4.35 ГБ, Здоровье: 100%

Anonymous

0
23|1

35
0

13 сен 2015, 00:58

Anonymous Перейти к последнему сообщению

В этой теме нет новых непрочитанных сообщений. Скачать торрент Проверен (Power Metal) Holy Grail - Discography (7 releases) - 2009 - 2016, MP3, 320 kbps

в форуме Heavy, Power, Progressive (Metal), Размер: 539.01 МБ, Здоровье: 0%

Anonymous

0
0|0

4
0

09 окт 2016, 19:19

Anonymous Перейти к последнему сообщению

В этой теме нет новых непрочитанных сообщений. Скачать торрент Проверен (Power Metal) [24/96] [3LP+3EP 7"] Holy Grail - Дискография (2009-2013), FLAC (tracks)

в форуме Зарубежный рок (оцифровки), Размер: 3.02 ГБ, Здоровье: 0%

Anonymous

0
0|0

1
0

24 авг 2016, 15:19

Anonymous Перейти к последнему сообщению

В этой теме нет новых непрочитанных сообщений. Скачать торрент Проверен (Power Metal) Holy Grail - Ride The Void - 2013, FLAC (image+.cue), lossless

в форуме Heavy, Power, Progressive (Metal), Размер: 427.3 МБ, Здоровье: 0%

Anonymous

0
0|0

2
0

11 окт 2016, 00:41

Anonymous Перейти к последнему сообщению

В этой теме нет новых непрочитанных сообщений. Скачать торрент Проверен (Hard-Rock) [CD] Iain Ashley Hersey - The Holy Grail - 2005, FLAC (image+.cue), lossless

в форуме Classic Rock & Hard Rock, Размер: 559.44 МБ, Здоровье: 100%

Anonymous

0
1|0

2
0

04 сен 2016, 18:05

Anonymous Перейти к последнему сообщению



Сейчас этот форум просматривают: нет зарегистрированных пользователей и гости: 3


Вы не можете начинать темы
Вы не можете отвечать на сообщения
Вы не можете редактировать свои сообщения
Вы не можете удалять свои сообщения
Вы не можете добавлять вложения

Перейти:  

!ВНИМАНИЕ!
 Ресурс не предоставляет электронные версии произведений, а занимается лишь коллекционированием и каталогизацией ссылок, присылаемых и публикуемых на форуме нашими читателями. Если вы являетесь правообладателем какого-либо представленного материала и не желаете чтобы ссылка на него находилась в нашем каталоге, свяжитесь с нами и мы незамедлительно удалим её. Файлы для обмена на трекере предоставлены пользователями сайта, и администрация не несёт ответственности за их содержание. Просьба не заливать файлы, защищенные авторскими правами, а также файлы нелегального содержания!