На всех торрентах на трекере установлена скидка на скачивание в размере 100 процентов(а).
 Возможность скачивания торрента НЕ зависит от ограничений при низком ратио, низком аплоаде, требуемом ратио или требуемом аплоаде.


Начать новую тему Ответить на тему
Статистика раздачи
Размер: 3.87 ГБ | Добавлен: 31 июл 2013, 10:40 | Скачали: 0
Сидеров: 0  [0 байт/сек]    Личеров: 0  [0 байт/сек]
Пред. тема | След. тема 

Автор
Сообщение

СообщениеДобавлено: 31 июл 2013, 10:40 

Название: Машина Времени
Оригинальное название: The Time Machine
Год выхода: 2002
Жанр: Фантастика, Приключения
Режиссер: Саймон Уэллс

В ролях: Гай Пирс, Марк Эдди, Филлида Ло, Лаура Кирк, Джош Стэмберг, Джон В. Момроу, Сиенна Гиллори, Макс Бейкер, Джеффри М. Мейер, Алан Янг

О фильме:
Профессор Александр Хартдеген изобрел машину времени. Изобрел не потому, что он гений-ученый, а для того что бы отправиться в прошлое и спасти свою невесту от случайной пули. Но ее смерть предотвратить не удалось — прошлое нельзя изменить. В поисках ответа на вопрос «почему?» Хартдеген забирается на двести лет в будущее, застав Землю в ужасающем состоянии.

Получив ранение и впав в беспамятство он и не заметил, как его машина прошла сквозь восемьсот тысяч лет истории планеты Земля. Человечество изменилось, века технократии канули в Лету, люди стали похожими на добрых папуасов, живущих в домах-люльках, подвешенных к скалам.

Но у столь пасторальной картины есть и темная сторона. Часть человечества эволюционировало в морлоков — чудищ, живущих под землей в пещерах, и пожирающих тех, кто живет на земле.
Страна: США
Продолжительность: 01:36:13
Перевод: Дублированный


Кодек: MPEG-4 AVC/H.264
Качество: BDRip
Видео: 1280x512, 23.976 fps, ~5372 kb/s Bits/(Pixel*Frame) 0.342
Звук: AC-3, 384 kbps, 6 каналов, 16 bit, (L, C, R, l, r) + LFE
Субтитры: Отсутствуют


General
Unique ID : 243473842820712196673107409464051102108 (0xB72B5B40B9144B57B54B603F8EABF19C)
Complete name : D:Машина времени.mkv
Format : Matroska
Format version : Version 4 / Version 2
File size : 3.87 GiB
Duration : 1h 36mn
Overall bit rate : 5 758 Kbps
Encoded date : UTC 2013-07-31 00:01:10
Writing application : mkvmerge v6.2.0 ('Promised Land') built on May 1 2013 18:02:55
Writing library : libebml v1.3.0 + libmatroska v1.4.0

Video
ID : 1
Format : AVC
Format/Info : Advanced Video Codec
Format profile : High@L4.1
Format settings, CABAC : Yes
Format settings, ReFrames : 4 frames
Codec ID : V_MPEG4/ISO/AVC
Duration : 1h 36mn
Bit rate : 5 372 Kbps
Width : 1 280 pixels
Height : 512 pixels
Display aspect ratio : 2.500
Frame rate mode : Constant
Frame rate : 23.976 fps
Color space : YUV
Chroma subsampling : 4:2:0
Bit depth : 8 bits
Scan type : Progressive
Bits/(Pixel*Frame) : 0.342
Stream size : 3.53 GiB (91%)
Writing library : x264 core 98 r1649 20cbe10
Encoding settings : cabac=1 / ref=4 / deblock=1:-3:-3 / analyse=0x3:0x113 / me=umh / subme=9 / psy=1 / psy_rd=1.00:0.00 / mixed_ref=1 / me_range=16 / chroma_me=1 / trellis=1 / 8x8dct=1 / cqm=0 / deadzone=21,11 / fast_pskip=1 / chroma_qp_offset=-2 / threads=16 / sliced_threads=0 / nr=0 / decimate=0 / interlaced=0 / constrained_intra=0 / bframes=4 / b_pyramid=0 / b_adapt=2 / b_bias=0 / direct=3 / weightb=1 / weightp=2 / keyint=250 / keyint_min=25 / scenecut=40 / intra_refresh=0 / rc_lookahead=50 / rc=2pass / mbtree=1 / bitrate=5372 / ratetol=1.0 / qcomp=0.60 / qpmin=10 / qpmax=51 / qpstep=4 / cplxblur=20.0 / qblur=0.5 / ip_ratio=1.40 / aq=1:1.00
Language : English
Default : Yes
Forced : No

Audio
ID : 2
Format : AC-3
Format/Info : Audio Coding 3
Mode extension : CM (complete main)
Format settings, Endianness : Big
Codec ID : A_AC3
Duration : 1h 36mn
Bit rate mode : Constant
Bit rate : 384 Kbps
Channel(s) : 6 channels
Channel positions : Front: L C R, Side: L R, LFE
Sampling rate : 48.0 KHz
Bit depth : 16 bits
Compression mode : Lossy
Stream size : 264 MiB (7%)
Title : Dub 384Kbp/s
Language : Russian
Default : Yes
Forced : No
загрузка...
Правила, инструкции, FAQ!!!
Торрент  Добавлен [31 июл 2013, 10:40] Скачать торрент
Скачать торрент
[ Размер 19.87 КБ / Просмотров 14 ]

Статус  
 
Размер  3.87 ГБ
Приватный: Нет (DHT включён)
.torrent скачан  0
Как залить торрент? | Как скачать Torrent? | Как смотреть и слушать онлайн?  


     Отправить личное сообщение
   
Страница 1 из 1
Показать сообщения за:  Поле сортировки  
Начать новую тему Ответить на тему

   Похожие торренты   Автор   Ответы   Просмотры   Последнее сообщение 
В этой теме нет новых непрочитанных сообщений. Скачать торрент Машина времени / The Time Machine (2002) BDRip 1080p

в форуме 720p | 1080p, Размер: 5.76 ГБ, Здоровье: 100%

Anonymous

0
52|3

36
573

20 апр 2014, 08:04

Anonymous Перейти к последнему сообщению

В этой теме нет новых непрочитанных сообщений. Скачать торрент Машина времени / The Time Machine (2002) DTheater-Rip-AVC

в форуме Фантастика, Фэнтези, Размер: 1.45 ГБ, Здоровье: 100%

Anonymous

0
42|1

37
400

20 апр 2014, 08:09

Anonymous Перейти к последнему сообщению

В этой теме нет новых непрочитанных сообщений. Скачать торрент Машина / The Machine (2013) BDRip 720p | L1

в форуме 720p | 1080p, Размер: 4.33 ГБ, Здоровье: 0%

Anonymous

0
0|0

23
0

13 апр 2014, 08:45

Anonymous Перейти к последнему сообщению

В этой теме нет новых непрочитанных сообщений. Скачать торрент Проверен [iPad] Машина времени / The Time Machine (Саймон Уэллс / Simon Wells ) [2002, США, фантастика, боевик, приключения, HDDVDRip, SD (576p)] DUB + Original + sub (rus, eng)

в форуме Фильмы для iPod, iPhone, iPad, Размер: 1.67 ГБ, Здоровье: 100%

Гость

0
19|6

34
0

11 май 2015, 01:38

Гость Перейти к последнему сообщению

В этой теме нет новых непрочитанных сообщений. Скачать торрент Машина времени в джакузи / Hot Tub Time Machine (Стив Пинк / Steve Pink) [2010, США, фантастика, комедия, BDRip] [Театральная версия / Theatrical Cut] Dub

в форуме Фантастика, Фэнтези, Размер: 1.45 ГБ, Здоровье: 100%

Anonymous

0
56|19

91
0

04 фев 2014, 21:25

Anonymous Перейти к последнему сообщению



Сейчас этот форум просматривают: нет зарегистрированных пользователей и гости: 1


Вы не можете начинать темы
Вы не можете отвечать на сообщения
Вы не можете редактировать свои сообщения
Вы не можете удалять свои сообщения
Вы не можете добавлять вложения

Перейти:  

!ВНИМАНИЕ!
 Ресурс не предоставляет электронные версии произведений, а занимается лишь коллекционированием и каталогизацией ссылок, присылаемых и публикуемых на форуме нашими читателями. Если вы являетесь правообладателем какого-либо представленного материала и не желаете чтобы ссылка на него находилась в нашем каталоге, свяжитесь с нами и мы незамедлительно удалим её. Файлы для обмена на трекере предоставлены пользователями сайта, и администрация не несёт ответственности за их содержание. Просьба не заливать файлы, защищенные авторскими правами, а также файлы нелегального содержания!