На всех торрентах на трекере установлена скидка на скачивание в размере 100 процентов(а).
 Возможность скачивания торрента НЕ зависит от ограничений при низком ратио, низком аплоаде, требуемом ратио или требуемом аплоаде.


Начать новую тему Ответить на тему
Статистика раздачи
Размер: 4.87 ГБ | Добавлен: 30 июл 2013, 06:30 | Скачали: 0
Сидеров: 0  [0 байт/сек]    Личеров: 0  [0 байт/сек]
Пред. тема | След. тема 

Автор
Сообщение

СообщениеДобавлено: 30 июл 2013, 06:30 

Название: Оружейный барон
Оригинальное название: Lord of War
Год выхода: 2005
Жанр: триллер, драма, криминал
Режиссер: Эндрю Никкол

В ролях: Николас Кейдж, Бриджет Мойнэхэн, Джаред Лето, Итан Хоук, Иэн Холм, Сэмми Ротиби, Имонн Уолкер, Дэвид Хармен, Евгений Лазарев, Джаспер Ленц

О фильме:
Родители братьев Орловых, старшего Юрия и младшего Виталия, покинули Украину и обосновались в Америке, на Брайтон-Бич, где открыли маленький ресторанчик. Дети же не рвались идти по родительским стопам. Юрий, раздумывая, чем заниматься, пришел к выводу: самое выгодное — торговать оружием. Потому что в мире, переполненном агрессией, оружие никогда не бывает лишним. Оно нужно и родственникам, дерущимся друг с другом, и конкурирующим бандам, и враждующим государствам. Юрий Орлов, опираясь на младшего брата Виталия, быстро завоевывает свое место под солнцем и надеется в скором времени стать таким же крутым «продавцом смерти», как его кумир Симеон Вайс. Но чем выше поднимается Юрий, тем ближе к нему подбирается агент Интерпола Джек Валентайн…


Страна: США, Франция, Германия
Продолжительность: 02:01:57
Перевод: Дублированный


Качество: BDRip 720p
Видео: AVC, 1280x532 (2.40:1) at 23.976 fps, AVC at 5 265 kbps avg, 0.316 bit/pixel, crf
Звук: 48 kHz, AC3 Dolby Digital, 3/2 (L,C,R,l,r) + LFE ch, 448.00 kbps - Russian (dub)
Субтитры: 2 х Русские (Tycoon, R5), Английские - SRT
Дополнительно: сохранены оригинальные чаптеры как на Blu-ray.

Автор рипа:

General
Unique ID : 229433859791311939461604303855703479220 (0xAC9B5AA52C56E05AB24E1891E28ED3B4)
Complete name : C:torrentsLord of War.2005.720p.BluRay.x264-LEONARDO.mkv
Format : Matroska
Format version : Version 2
File size : 4.87 GiB
Duration : 2h 1mn
Overall bit rate : 5 715 Kbps
Movie name : -=LEONARDO=-
Encoded date : UTC 2013-07-17 09:58:44
Writing application : mkvmerge v5.8.0 ('No Sleep / Pillow') built on Sep 2 2012 15:37:04
Writing library : libebml v1.2.3 + libmatroska v1.3.0

Video
ID : 1
Format : AVC
Format/Info : Advanced Video Codec
Format profile : High@L4.1
Format settings, CABAC : Yes
Format settings, ReFrames : 8 frames
Codec ID : V_MPEG4/ISO/AVC
Duration : 2h 1mn
Bit rate : 5 153 Kbps
Width : 1 280 pixels
Height : 532 pixels
Display aspect ratio : 2.40:1
Frame rate mode : Constant
Frame rate : 23.976 fps
Color space : YUV
Chroma subsampling : 4:2:0
Bit depth : 8 bits
Scan type : Progressive
Bits/(Pixel*Frame) : 0.316
Stream size : 4.39 GiB (90%)
Writing library : x264 core 125 r2208 d9d2288
Encoding settings : cabac=1 / ref=8 / deblock=1:-3:-3 / analyse=0x3:0x133 / me=umh / subme=11 / psy=1 / psy_rd=1.00:0.15 / mixed_ref=1 / me_range=32 / chroma_me=1 / trellis=2 / 8x8dct=1 / cqm=0 / deadzone=21,11 / fast_pskip=0 / chroma_qp_offset=-3 / threads=12 / lookahead_threads=2 / sliced_threads=0 / nr=0 / decimate=1 / interlaced=0 / bluray_compat=0 / constrained_intra=0 / bframes=12 / b_pyramid=2 / b_adapt=2 / b_bias=0 / direct=1 / weightb=1 / open_gop=0 / weightp=2 / keyint=250 / keyint_min=23 / scenecut=40 / intra_refresh=0 / rc=crf / mbtree=0 / crf=17.7 / qcomp=0.60 / qpmin=0 / qpmax=69 / qpstep=4 / ip_ratio=1.40 / pb_ratio=1.30 / aq=2:1.00
Language : English
Default : Yes
Forced : No

Audio
ID : 2
Format : AC-3
Format/Info : Audio Coding 3
Mode extension : CM (complete main)
Format settings, Endianness : Big
Codec ID : A_AC3
Duration : 2h 1mn
Bit rate mode : Constant
Bit rate : 448 Kbps
Channel(s) : 6 channels
Channel positions : Front: L C R, Side: L R, LFE
Sampling rate : 48.0 KHz
Bit depth : 16 bits
Compression mode : Lossy
Stream size : 391 MiB (8%)
Language : Russian
Default : Yes
Forced : Yes

Text #1
ID : 3
Format : UTF-8
Codec ID : S_TEXT/UTF8
Codec ID/Info : UTF-8 Plain Text
Title : Tycoon
Language : Russian
Default : No
Forced : No

Text #2
ID : 4
Format : UTF-8
Codec ID : S_TEXT/UTF8
Codec ID/Info : UTF-8 Plain Text
Title : R5
Language : Russian
Default : No
Forced : No

Text #3
ID : 5
Format : UTF-8
Codec ID : S_TEXT/UTF8
Codec ID/Info : UTF-8 Plain Text
Language : English
Default : No
Forced : No

Menu
00:00:00.000 : en:00:00:00.000
00:04:37.610 : en:00:04:37.610
00:08:13.493 : en:00:08:13.493
00:12:29.457 : en:00:12:29.457
00:16:40.332 : en:00:16:40.332
00:19:35.174 : en:00:19:35.174
00:23:27.072 : en:00:23:27.072
00:27:19.888 : en:00:27:19.888
00:31:07.115 : en:00:31:07.115
00:38:20.089 : en:00:38:20.089
00:42:18.786 : en:00:42:18.786
00:45:52.166 : en:00:45:52.166
00:50:43.999 : en:00:50:43.999
00:53:56.149 : en:00:53:56.149
00:58:17.911 : en:00:58:17.911
01:02:48.931 : en:01:02:48.931
01:08:33.442 : en:01:08:33.442
01:12:25.841 : en:01:12:25.841
01:17:21.094 : en:01:17:21.094
01:21:31.595 : en:01:21:31.595
01:25:03.932 : en:01:25:03.932
01:30:07.276 : en:01:30:07.276
01:37:01.273 : en:01:37:01.273
01:40:10.212 : en:01:40:10.212
01:47:04.209 : en:01:47:04.209
01:50:58.109 : en:01:50:58.109
01:54:23.481 : en:01:54:23.481
01:56:09.504 : en:01:56:09.504







загрузка...
Правила, инструкции, FAQ!!!
Торрент  Добавлен [30 июл 2013, 06:30] Скачать торрент
Скачать торрент
[ Размер 12.71 КБ / Просмотров 12 ]

Статус  
 
Размер  4.87 ГБ
Приватный: Нет (DHT включён)
.torrent скачан  0
Как залить торрент? | Как скачать Torrent? | Как смотреть и слушать онлайн?  


     Отправить личное сообщение
   
Страница 1 из 1
Показать сообщения за:  Поле сортировки  
Начать новую тему Ответить на тему

   Похожие торренты   Автор   Ответы   Просмотры   Последнее сообщение 
В этой теме нет новых непрочитанных сообщений. Скачать торрент Оружейный барон / Lord of War (Эндрю Никкол / Andrew Niccol) [2005 г., триллер, драма, криминал, BDRip-AVC] Dub

в форуме Триллеры, Размер: 3.98 ГБ, Здоровье: 0%

Anonymous

0
0|0

79
0

26 апр 2014, 20:59

Anonymous Перейти к последнему сообщению

В этой теме нет новых непрочитанных сообщений. Скачать торрент Оружейный барон / Lord of War (Эндрю Никкол) [2005 г., Боевик / Триллер, HDTV, 1080p]

в форуме 720p | 1080p, Размер: 19.45 ГБ, Здоровье: 0%

Anonymous

0
0|0

62
0

25 фев 2014, 22:42

Anonymous Перейти к последнему сообщению

В этой теме нет новых непрочитанных сообщений. Скачать торрент Оружейный барон / Lord of War (Эндрю Никкол / Andrew Niccol) [2005 г., триллер, драма, криминал, HDRip] Dub

в форуме Триллеры, Размер: 745.64 МБ, Здоровье: 0%

Anonymous

0
0|0

60
0

25 апр 2014, 08:55

Anonymous Перейти к последнему сообщению

В этой теме нет новых непрочитанных сообщений. Скачать торрент [VIDEO] Оружейный барон / Lord of War (Эндрю Никкол / Andrew Niccol) [2005, триллер, драма, криминал, HDRip] [MP4, 640x] Dub

в форуме Видео для смартфонов и КПК, Размер: 1.03 ГБ, Здоровье: 100%

Anonymous

0
5|1

79
0

30 янв 2014, 06:46

Anonymous Перейти к последнему сообщению

В этой теме нет новых непрочитанных сообщений. Скачать торрент Проверен Дмитрий Старицкий | Оружейный барон (2015) [FB2]

в форуме Фантастика, фэнтези, Размер: 1.69 МБ, Здоровье: 100%

Гость

0
237|7

243
31

20 дек 2015, 19:16

Гость Перейти к последнему сообщению



Сейчас этот форум просматривают: нет зарегистрированных пользователей и гости: 2


Вы не можете начинать темы
Вы не можете отвечать на сообщения
Вы не можете редактировать свои сообщения
Вы не можете удалять свои сообщения
Вы не можете добавлять вложения

Перейти:  

!ВНИМАНИЕ!
 Ресурс не предоставляет электронные версии произведений, а занимается лишь коллекционированием и каталогизацией ссылок, присылаемых и публикуемых на форуме нашими читателями. Если вы являетесь правообладателем какого-либо представленного материала и не желаете чтобы ссылка на него находилась в нашем каталоге, свяжитесь с нами и мы незамедлительно удалим её. Файлы для обмена на трекере предоставлены пользователями сайта, и администрация не несёт ответственности за их содержание. Просьба не заливать файлы, защищенные авторскими правами, а также файлы нелегального содержания!