На всех торрентах на трекере установлена скидка на скачивание в размере 100 процентов(а).
 Возможность скачивания торрента НЕ зависит от ограничений при низком ратио, низком аплоаде, требуемом ратио или требуемом аплоаде.


Начать новую тему Ответить на тему
Статистика раздачи
Размер: 2.91 ГБ | Добавлен: 29 июл 2013, 22:54 | Скачали: 0
Сидеров: 0  [0 байт/сек]    Личеров: 0  [0 байт/сек]
Пред. тема | След. тема 

Автор
Сообщение

СообщениеДобавлено: 29 июл 2013, 22:54 

Год выпуска: 2012
Производство: Великобритания, США / BBC Films, iDeal Partners Film Fund, Lip Sync Productions, Number 9 Films, Unison Films
Жанр: Драма, мелодрама
Продолжительность: 02:08:22
Перевод: Профессиональный (полное дублирование)
Субтитры: Русские, английские (полные + SDH) |отключаемые|


Режиссер: Майк Ньюэлл / Mike Newell

В ролях: Джереми Ирвин, Холлидей Грейнджер, Рэйф Файнс, Хелена Бонем Картер, Джейсон Флеминг, Робби Колтрейн, Салли Хокинс, Юэн Бремнер, Дэвид Уоллиамс, Ралф Айнесон

О фильме: В центре сюжета - история молодого человека по имени Пип, который рано остался без родителей и был воспитан взбалмошной сестрой. Серая жизнь Пипа круто меняется, когда он помогает на кладбище освободиться от кандалов беглому каторжнику. Именно этот поступок вскоре приводит к череде головокружительных событий в жизни молодого человека.






Качество: BDRip-AVC [BDRemux]
Формат: MKV
Видео: х.264, х.264, 1120x476 (2,35:1), 23,976 fps, 2350 Кbps, 0.184 bit/pixel
Аудио#1: 48 kHz, AC3 Dolby Digital, 3/2 (L,C,R,l,r) + LFE ch, 448.00 kbps | RUS
Аудио#2: 48 kHz, AC3 Dolby Digital, 3/2 (L,C,R,l,r) + LFE ch, 448.00 kbps | ENG


Релиз от:
Автор рипа: potroks


Общее
Уникальный идентификатор : 185603432804888024482297140495243486164 (0x8BA1EBC03BC3FCD1B6B2667BE4A723D4)
Полное имя : Bol'shije.Nadezhdy.2012.DUAL.BDRip.x264.-HELLYWOOD.mkv
Формат : Matroska
Версия формата : Version 4 / Version 2
Размер файла : 2,91 Гбайт
Продолжительность : 2 ч. 8 м.
Общий поток : 3246 Кбит/сек
Название фильма : HELLYWOOD
Дата кодирования : UTC 2013-07-29 18:45:59
Программа кодирования : mkvmerge v5.9.0 ('On The Loose') built on Dec 15 2012 16:39:58
Библиотека кодирования : libebml v1.3.0 + libmatroska v1.4.0

Видео
Идентификатор : 1
Формат : AVC
Формат/Информация : Advanced Video Codec
Профиль формата : High@L4.1
Параметр CABAC формата : Да
Параметр ReFrames формата : 12 кадров
Идентификатор кодека : V_MPEG4/ISO/AVC
Продолжительность : 2 ч. 8 м.
Битрейт : 2350 Кбит/сек
Ширина : 1120 пикселей
Высота : 476 пикселей
Соотношение сторон : 2,35:1
Режим частоты кадров : Постоянный
Частота кадров : 23,976 кадра/сек
Цветовое пространство : YUV
Субдискретизация насыщенности : 4:2:0
Битовая глубина : 8 бит
Тип развёртки : Прогрессивная
Бит/(Пиксели*Кадры) : 0.184
Размер потока : 2,05 Гбайт (70%)
Заголовок : Great Expectations
Библиотека кодирования : x264 core 130 r2273 b3065e6
Настройки программы : cabac=1 / ref=12 / deblock=1:-2:-2 / analyse=0x3:0x133 / me=umh / subme=11 / psy=1 / psy_rd=1.12:0.02 / mixed_ref=1 / me_range=32 / chroma_me=1 / trellis=2 / 8x8dct=1 / cqm=0 / deadzone=21,11 / fast_pskip=0 / chroma_qp_offset=-3 / threads=9 / lookahead_threads=2 / sliced_threads=0 / nr=0 / decimate=1 / interlaced=0 / bluray_compat=0 / constrained_intra=0 / bframes=13 / b_pyramid=2 / b_adapt=2 / b_bias=0 / direct=3 / weightb=1 / open_gop=0 / weightp=2 / keyint=250 / keyint_min=23 / scenecut=40 / intra_refresh=0 / rc_lookahead=150 / rc=2pass / mbtree=1 / bitrate=2350 / ratetol=1.0 / qcomp=0.70 / qpmin=0 / qpmax=69 / qpstep=4 / cplxblur=20.0 / qblur=0.5 / vbv_maxrate=20000 / vbv_bufsize=25000 / nal_hrd=none / ip_ratio=1.35 / aq=1:0.70
Язык : English
Default : Да
Forced : Нет

Аудио #1
Идентификатор : 2
Формат : AC-3
Формат/Информация : Audio Coding 3
Расширение режима : CM (complete main)
Параметр Endianness формата : Big
Идентификатор кодека : A_AC3
Продолжительность : 2 ч. 8 м.
Вид битрейта : Постоянный
Битрейт : 448 Кбит/сек
Каналы : 6 каналов
Расположение каналов : Front: L C R, Side: L R, LFE
Частота : 48,0 КГц
Битовая глубина : 16 бит
Метод сжатия : С потерями
Размер потока : 411 Мбайт (14%)
Заголовок : Dub | DD 5.1 @ 448 kbps
Язык : Russian
Default : Да
Forced : Да

Аудио #2
Идентификатор : 3
Формат : AC-3
Формат/Информация : Audio Coding 3
Расширение режима : CM (complete main)
Параметр Endianness формата : Big
Идентификатор кодека : A_AC3
Продолжительность : 2 ч. 8 м.
Вид битрейта : Постоянный
Битрейт : 448 Кбит/сек
Каналы : 6 каналов
Расположение каналов : Front: L C R, Side: L R, LFE
Частота : 48,0 КГц
Битовая глубина : 16 бит
Метод сжатия : С потерями
Размер потока : 411 Мбайт (14%)
Заголовок : Original | DD 5.1 @ 448 kbps
Язык : English
Default : Нет
Forced : Нет

Текст #1
Идентификатор : 4
Формат : UTF-8
Идентификатор кодека : S_TEXT/UTF8
Идентификатор кодека/Информация : UTF-8 Plain Text
Заголовок : SDH
Язык : English
Default : Нет
Forced : Нет

Текст #2
Идентификатор : 5
Формат : UTF-8
Идентификатор кодека : S_TEXT/UTF8
Идентификатор кодека/Информация : UTF-8 Plain Text
Язык : English
Default : Нет
Forced : Нет

Текст #3
Идентификатор : 6
Формат : UTF-8
Идентификатор кодека : S_TEXT/UTF8
Идентификатор кодека/Информация : UTF-8 Plain Text
Язык : Russian
Default : Нет
Forced : Нет
x264 [info]: frame I:1347 Avg QP:14.50 size: 69955
x264 [info]: frame P:39038 Avg QP:17.62 size: 24815
x264 [info]: frame B:144294 Avg QP:19.72 size: 8297
x264 [info]: consecutive B-frames: 2.2% 2.4% 7.9% 16.4% 18.2% 38.2% 6.7% 1.6% 1.8% 1.0% 0.9% 0.6% 0.9% 1.3%
x264 [info]: mb I I16..4: 11.0% 70.0% 18.9%
x264 [info]: mb P I16..4: 1.0% 6.1% 1.0% P16..4: 31.6% 37.2% 12.8% 2.0% 0.2% skip: 8.0%
x264 [info]: mb B I16..4: 0.1% 0.7% 0.1% B16..8: 37.3% 18.6% 2.9% direct: 5.0% skip:35.3% L0:43.8% L1:46.6% BI: 9.7%
x264 [info]: 8x8 transform intra:73.1% inter:62.5%
x264 [info]: direct mvs spatial:98.1% temporal:1.9%
x264 [info]: coded y,uvDC,uvAC intra: 81.0% 74.9% 55.1% inter: 23.0% 19.0% 3.6%
x264 [info]: i16 v,h,dc,p: 50% 15% 8% 27%
x264 [info]: i8 v,h,dc,ddl,ddr,vr,hd,vl,hu: 8% 6% 6% 10% 15% 15% 14% 12% 13%
x264 [info]: i4 v,h,dc,ddl,ddr,vr,hd,vl,hu: 9% 7% 6% 10% 16% 14% 14% 11% 14%
x264 [info]: i8c dc,h,v,p: 43% 26% 16% 14%
x264 [info]: Weighted P-Frames: Y:8.3% UV:4.4%
x264 [info]: ref P L0: 45.1% 9.0% 17.3% 7.1% 5.5% 4.2% 3.6% 2.0% 1.8% 1.5% 1.4% 1.3% 0.3% 0.0%
x264 [info]: ref B L0: 70.3% 12.5% 6.3% 3.1% 2.3% 1.8% 1.5% 0.9% 0.7% 0.4% 0.2%
x264 [info]: ref B L1: 91.3% 8.7%
x264 [info]: kb/s:2347.39

x264 [total]: encoded 184679 frames, 6.75 fps, 2347.40 kb/s
TIME
------------------------------
Общее время кодирования: 10 hour 14 min 30 sec
Файл получился на: 2156.77 mb
загрузка...
Правила, инструкции, FAQ!!!
Торрент  Добавлен [29 июл 2013, 22:54] Скачать торрент
Скачать торрент
[ Размер 15.24 КБ / Просмотров 4 ]

Статус  
 
Размер  2.91 ГБ
Приватный: Нет (DHT включён)
.torrent скачан  0
Как залить торрент? | Как скачать Torrent? | Как смотреть и слушать онлайн?  


     Отправить личное сообщение
   
Страница 1 из 1
Показать сообщения за:  Поле сортировки  
Начать новую тему Ответить на тему

   Похожие торренты   Автор   Ответы   Просмотры   Последнее сообщение 
В этой теме нет новых непрочитанных сообщений. Скачать торрент Проверен (Pop) [CD] Tasmin Archer - Great Expectations - 1992, FLAC (tracks+.cue), lossless

в форуме Зарубежная музыка, Размер: 305.2 МБ, Здоровье: 50%

Anonymous

0
3|6

22
1

17 авг 2016, 13:36

Anonymous Перейти к последнему сообщению

В этой теме нет новых непрочитанных сообщений. Скачать торрент Проверен Freddie Mercury - The Great Pretender [2012, Documentary, Rock, BDRip 1080p] Rus

в форуме Концерты (HD-Video), Размер: 6.24 ГБ, Здоровье: 100%

Anonymous

0
14|4

9
2

23 окт 2016, 16:42

Anonymous Перейти к последнему сообщению

В этой теме нет новых непрочитанных сообщений. Скачать торрент Проверен (Classical) Naxos 25th Anniversary. The Great Classics. Box #2 - Great Ballet - 2012, FLAC (image+.cue) lossless

в форуме Классика, Размер: 3.24 ГБ, Здоровье: 0%

Anonymous

0
0|0

8
0

06 окт 2016, 23:20

Anonymous Перейти к последнему сообщению

В этой теме нет новых непрочитанных сообщений. Скачать торрент Проверен VA - Great Baroque Masterpieces (2012) Naxos 25th Anniversary. The Great Classics. 10 CD Box #8 [FLAC|Lossless]<Classical>

в форуме Классика, Размер: 3.58 ГБ, Здоровье: 100%

Гость

0
23|5

35
1

23 май 2015, 23:58

Гость Перейти к последнему сообщению

В этой теме нет новых непрочитанных сообщений. Скачать торрент Проверен (Classical) Naxos 25th Anniversary. The Great Classics. Box #3 - Great Piano Concertos - 2012, FLAC (image+.cue) lossless

в форуме Классика, Размер: 2.71 ГБ, Здоровье: 100%

Anonymous

0
16|0

1
1

06 окт 2016, 23:25

Anonymous Перейти к последнему сообщению



Сейчас этот форум просматривают: нет зарегистрированных пользователей и гости: 3


Вы не можете начинать темы
Вы не можете отвечать на сообщения
Вы не можете редактировать свои сообщения
Вы не можете удалять свои сообщения
Вы не можете добавлять вложения

Перейти:  

!ВНИМАНИЕ!
 Ресурс не предоставляет электронные версии произведений, а занимается лишь коллекционированием и каталогизацией ссылок, присылаемых и публикуемых на форуме нашими читателями. Если вы являетесь правообладателем какого-либо представленного материала и не желаете чтобы ссылка на него находилась в нашем каталоге, свяжитесь с нами и мы незамедлительно удалим её. Файлы для обмена на трекере предоставлены пользователями сайта, и администрация не несёт ответственности за их содержание. Просьба не заливать файлы, защищенные авторскими правами, а также файлы нелегального содержания!