На всех торрентах на трекере установлена скидка на скачивание в размере 100 процентов(а).
 Возможность скачивания торрента НЕ зависит от ограничений при низком ратио, низком аплоаде, требуемом ратио или требуемом аплоаде.


Начать новую тему Ответить на тему
Статистика раздачи
Размер: 7.95 ГБ | Добавлен: 29 июл 2013, 21:33 | Скачали: 0
Сидеров: 0  [0 байт/сек]    Личеров: 0  [0 байт/сек]
Пред. тема | След. тема 

Автор
Сообщение

СообщениеДобавлено: 29 июл 2013, 21:33 

Название: Интернэшнл
Оригинальное название: The International
Год выхода: 2009
Жанр: Триллер, драма, детектив
Режиссер: Том Тыквер

В ролях: Клайв Оуэн, Наоми Уоттс, Армин Мюллер-Шталь, Ульрих Томсен, Брайан Ф. О’Бирн, Майкл Волетти, Патрик Балади, Джей Вильерз, Фабрис Скотт, Халук Бильгинер, Лука Барбарески, Алессандро Фабрици, Феликс Солис, Джек МакГи, Нилайя Сан, Стивен Рандаззо, Тибор Фельдман, Джеймс Ребхорн, Реми Обержене, Ти Джонс, Питер Джордан, Аксель Милберг, Томас Моррис, Оливер Траутвайн, Луиджи Ди Фиоре, Лорен Шпильфогель, Джорджо Лупано, Лорис Лодди, Наталия Магни, Дино Конти, Вина Мсамати, Алессандро Кваттро, Марко Гамбино, Мэтт Патр

Сюжет фильма:

Перед Агентом Интерпола Льюис Сэлинджером и ассистентом по юридическим вопросам Элеонор Витман поставлена задача - предать правосудию один из наиболее могущественных банков мира. Собирая доказательства нелегальных операций, включая отмывание денег, торговлю оружием, вплоть до дестабилизации правительственных структур, агенты проводят расследование от Берлина до Милана, от Нью-Йорка до Стамбула. Оказавшись в эпицентре игры по-крупному, непреклонная настойчивость и жажда справедливости вынуждают их поставить на карту все, в том числе собственные жизни. Ведь банк не остановится ни перед чем - даже перед убийством - чтобы продолжить финансирование войны и террора. Но банк - лишь вершина айсберга в глобальной коррупционной системе…


Выпущено: США, Германия, Великобритания, Atlas Entertainment, Mosaic Media Group, Relativity Media, Rose Line Productions, Siebte Babelsberg Film, Studio Babelsberg, X-Filme Creative Pool
Продолжительность: 01:58:02
Перевод: Дублированный, Английский

Качество: BDRip 1080p (исходник Blu-ray Disc)
Видео: 1920х800, 8 747 Кбит/сек, 23.976 кадр/сек, 2.40:1, AVC, x264, 0.238 Бит/(Пиксели*Кадры), 2-pass
Аудио1: AC-3, 448 Кбит/сек, 6 канала(ов), 48,0 КГц - Дублированный
Аудио2: AC-3, 448 Кбит/сек, 6 канала(ов), 48,0 КГц - Английский
Чаптеры Есть




Format : Matroska
Format version : Version 4 / Version 2
File size : 7.95 GiB
Duration : 1h 58mn
Overall bit rate : 9 643 Kbps
Movie name : Интернэшнл.(2009).BDRip.1080p.NoLimits-Team
Encoded date : UTC 2013-07-29 10:57:03
Writing application : mkvmerge v6.3.0 ('You can't stop me!') built on Jun 28 2013 20:09:41
Writing library : libebml v1.3.0 + libmatroska v1.4.0

Video
ID : 1
Format : AVC
Format/Info : Advanced Video Codec
Format profile : High@L4.1
Format settings, CABAC : Yes
Format settings, ReFrames : 5 frames
Codec ID : V_MPEG4/ISO/AVC
Duration : 1h 58mn
Bit rate : 8 747 Kbps
Width : 1 920 pixels
Height : 800 pixels
Display aspect ratio : 2.40:1
Frame rate mode : Constant
Frame rate : 23.976 fps
Color space : YUV
Chroma subsampling : 4:2:0
Bit depth : 8 bits
Scan type : Progressive
Bits/(Pixel*Frame) : 0.238
Stream size : 7.05 GiB (89%)
Title : Интернэшнл.(2009).BDRip.1080p от NoLimits-Team Release_denis_100
Writing library : x264 core 135 r2345 f0c1c53
Encoding settings : cabac=1 / ref=5 / deblock=1:-3:-3 / analyse=0x3:0x113 / me=umh / subme=11 / psy=1 / psy_rd=1.00:0.15 / mixed_ref=1 / me_range=32 / chroma_me=1 / trellis=2 / 8x8dct=1 / cqm=0 / deadzone=21,11 / fast_pskip=0 / chroma_qp_offset=-3 / threads=6 / lookahead_threads=1 / sliced_threads=0 / nr=0 / decimate=0 / interlaced=0 / bluray_compat=0 / constrained_intra=0 / bframes=8 / b_pyramid=2 / b_adapt=2 / b_bias=0 / direct=3 / weightb=1 / open_gop=0 / weightp=2 / keyint=240 / keyint_min=23 / scenecut=40 / intra_refresh=0 / rc=2pass / mbtree=0 / bitrate=8747 / ratetol=1.0 / qcomp=0.60 / qpmin=0 / qpmax=69 / qpstep=4 / cplxblur=20.0 / qblur=0.5 / ip_ratio=1.40 / pb_ratio=1.30 / aq=1:0.85
Language : English
Default : Yes
Forced : No

Audio #1
ID : 2
Format : AC-3
Format/Info : Audio Coding 3
Mode extension : CM (complete main)
Format settings, Endianness : Big
Codec ID : A_AC3
Duration : 1h 58mn
Bit rate mode : Constant
Bit rate : 448 Kbps
Channel(s) : 6 channels
Channel positions : Front: L C R, Side: L R, LFE
Sampling rate : 48.0 KHz
Bit depth : 16 bits
Compression mode : Lossy
Stream size : 378 MiB (5%)
Title : Дублированный
Language : Russian
Default : Yes
Forced : No

Audio #2
ID : 3
Format : AC-3
Format/Info : Audio Coding 3
Mode extension : CM (complete main)
Format settings, Endianness : Big
Codec ID : A_AC3
Duration : 1h 58mn
Bit rate mode : Constant
Bit rate : 448 Kbps
Channel(s) : 6 channels
Channel positions : Front: L C R, Side: L R, LFE
Sampling rate : 48.0 KHz
Bit depth : 16 bits
Compression mode : Lossy
Stream size : 378 MiB (5%)
Title : Английский
Language : English
Default : No
Forced : No

Menu
00:00:00.000 : en:Chapter 01
00:00:45.295 : en:Chapter 02
00:04:20.802 : en:Chapter 03
00:06:43.319 : en:Chapter 04
00:13:15.419 : en:Chapter 05
00:16:03.545 : en:Chapter 06
00:22:35.479 : en:Chapter 07
00:30:34.874 : en:Chapter 08
00:40:22.086 : en:Chapter 09
00:42:48.399 : en:Chapter 10
00:48:35.078 : en:Chapter 11
00:53:22.991 : en:Chapter 12
00:55:53.975 : en:Chapter 13
01:05:44.649 : en:Chapter 14
01:08:21.263 : en:Chapter 15
01:22:19.142 : en:Chapter 16
01:27:39.837 : en:Chapter 17
01:33:56.339 : en:Chapter 18
01:38:54.970 : en:Chapter 19
01:41:34.129 : en:Chapter 20
01:44:55.080 : en:Chapter 21

Релиз Группа: Автор Рипа:

загрузка...
Правила, инструкции, FAQ!!!
Торрент  Добавлен [29 июл 2013, 21:33] Скачать торрент
Скачать торрент
[ Размер 40.2 КБ / Просмотров 9 ]

Статус  
 
Размер  7.95 ГБ
Приватный: Нет (DHT включён)
.torrent скачан  0
Как залить торрент? | Как скачать Torrent? | Как смотреть и слушать онлайн?  


     Отправить личное сообщение
   
Страница 1 из 1
Показать сообщения за:  Поле сортировки  
Начать новую тему Ответить на тему

   Похожие торренты   Автор   Ответы   Просмотры   Последнее сообщение 
В этой теме нет новых непрочитанных сообщений. Скачать торрент Интернэшнл / The International (Том Тыквер / Tom Tykwer) [2009, боевик, триллер, криминал, детектив, HDRip] DUB

в форуме Боевики, Размер: 748 МБ, Здоровье: 0%

Anonymous

0
0|0

32
0

13 фев 2014, 06:33

Anonymous Перейти к последнему сообщению

В этой теме нет новых непрочитанных сообщений. Скачать торрент Проверен Noel Gallagher's High Flying Birds - International Magic Live At The O2 [2012, Indie Rock, Brit Pop, Rock, BDRip 1080p]

в форуме Концерты (HD-Video), Размер: 6.55 ГБ, Здоровье: 0%

Anonymous

0
0|0

4
0

23 окт 2016, 11:23

Anonymous Перейти к последнему сообщению

В этой теме нет новых непрочитанных сообщений. Скачать торрент Проверен Linkin Park - New Divide (2009) BDRip 1080p (Джо Хан) [2009, Alternative rock, BDRip]

в форуме Концерты (HD-Video), Размер: 451.32 МБ, Здоровье: 100%

Anonymous

0
3|1

4
0

23 окт 2016, 11:54

Anonymous Перейти к последнему сообщению

В этой теме нет новых непрочитанных сообщений. Скачать торрент Проверен Bon Jovi - When We Were Beautiful (Bonus) BDrip 1080p [2009, Rock, Documentary, BDRip]

в форуме Концерты (HD-Video), Размер: 4.09 ГБ, Здоровье: 100%

Anonymous

0
2|1

0
0

23 окт 2016, 14:23

Anonymous Перейти к последнему сообщению

В этой теме нет новых непрочитанных сообщений. Скачать торрент Проверен Jose Feliciano - The Paris Concert (2009) [2009, soft rock, blues, acoustic, BDRip 1080p]

в форуме Концерты (HD-Video), Размер: 7.95 ГБ, Здоровье: 100%

Anonymous

0
1|0

6
0

23 окт 2016, 13:02

Anonymous Перейти к последнему сообщению



Сейчас этот форум просматривают: нет зарегистрированных пользователей и гости: 4


Вы не можете начинать темы
Вы не можете отвечать на сообщения
Вы не можете редактировать свои сообщения
Вы не можете удалять свои сообщения
Вы не можете добавлять вложения

Перейти:  

!ВНИМАНИЕ!
 Ресурс не предоставляет электронные версии произведений, а занимается лишь коллекционированием и каталогизацией ссылок, присылаемых и публикуемых на форуме нашими читателями. Если вы являетесь правообладателем какого-либо представленного материала и не желаете чтобы ссылка на него находилась в нашем каталоге, свяжитесь с нами и мы незамедлительно удалим её. Файлы для обмена на трекере предоставлены пользователями сайта, и администрация не несёт ответственности за их содержание. Просьба не заливать файлы, защищенные авторскими правами, а также файлы нелегального содержания!