На всех торрентах на трекере установлена скидка на скачивание в размере 100 процентов(а).
 Возможность скачивания торрента НЕ зависит от ограничений при низком ратио, низком аплоаде, требуемом ратио или требуемом аплоаде.


Начать новую тему Ответить на тему
Статистика раздачи
Размер: 11.54 ГБ | Добавлен: 28 июл 2013, 22:53 | Скачали: 0
Сидеров: 0  [0 байт/сек]    Личеров: 0  [0 байт/сек]
Пред. тема | След. тема 

Автор
Сообщение

СообщениеДобавлено: 28 июл 2013, 22:53 

Название: Немножко беременна
Оригинальное название: Knocked Up
Год выхода: 2007
Жанр: комедия, мелодрама, драма
Режиссер: Джудд Апатоу

В ролях: Кэтрин Хайгл, Сет Роджен, Пол Рудд, Лесли Манн, Джейсон Сегел, Джей Барушель, Йон Хилл, Мартин Старр, Шарлин Йи, Ирис Апатов, Мод Апатов, Джоэнна Кернс, Харольд Рэмис, Алан Тьюдик, Кристен Уиг

О фильме:
Герой фильма оказывается в щекотливой ситуации: девушка, с которой он как-то раз оказался в одной постели, неожиданно для обеих сторон забеременела. Сценарист и режиссер "40-летнего девственника" представляет еще одну сногсшибательную хитовую комедию! Говорят, что противоположности сходятся. Ммм, для бездельника Бэна и успешной Элисон это как раз тот случай - по крайней мере, на один "угарный" вечер. Через два месяца и несколько тестов на беременность, Бэн и Элисон проходят через истерически смешной, беспокойный и душевный период жизни, который зритель переживает вместе с героями в самой потрясающей комедии года.



Выпущено: США
Студия: Universal Pictures
Продолжительность: 02:12:57
Перевод: Дублированный + Оригинал


Кодек: x264
Качество: BDRip (источник: Blu-ray Disc)
Видео: 1920x1040 (1,85:1), 23.976 fps, 11,2 Mbps
Аудио #1: AC-3, 6 ch, 640 kbps (Rus)
Аудио #2: AC-3, 6 ch, 640 kbps (Eng)
Субтитры: Русские, Английские
Скачать: семпл

Общее
Уникальный идентификатор : 207989381996230601229513198790519425869 (0x9C794C4286C7B1DA93C31779A0260B4D)
Полное имя : E:Knocked.Up.2007.BDRip.1080p.Rus.Eng.mkv
Формат : Matroska
Версия формата : Version 4 / Version 2
Размер файла : 11,5 Гбайт
Продолжительность : 2 ч. 12 м.
Общий поток : 12,4 Мбит/сек
Название фильма : Немножко беременна / Knocked Up (2007)
Дата кодирования : UTC 2013-07-28 12:54:06
Программа кодирования : mkvmerge v6.3.0 ('You can't stop me!') built on Jun 28 2013 20:09:41
Библиотека кодирования : libebml v1.3.0 + libmatroska v1.4.0

Видео
Идентификатор : 1
Формат : AVC
Формат/Информация : Advanced Video Codec
Профиль формата : High@L4.1
Параметр CABAC формата : Да
Параметр ReFrames формата : 4 кадра
Идентификатор кодека : V_MPEG4/ISO/AVC
Продолжительность : 2 ч. 12 м.
Битрейт : 11,2 Мбит/сек
Ширина : 1920 пикселей
Высота : 1040 пикселей
Соотношение сторон : 1,85:1
Режим частоты кадров : Постоянный
Частота кадров : 23,976 кадра/сек
Цветовое пространство : YUV
Субдискретизация насыщенности : 4:2:0
Битовая глубина : 8 бит
Тип развёртки : Прогрессивная
Бит/(Пиксели*Кадры) : 0.233
Размер потока : 10,1 Гбайт (88%)
Заголовок : Release by N1NT3NDO
Библиотека кодирования : x264 core 135 r2345 f0c1c53
Настройки программы : cabac=1 / ref=4 / deblock=1:-3:-3 / analyse=0x3:0x133 / me=umh / subme=11 / psy=1 / psy_rd=1.00:0.00 / mixed_ref=1 / me_range=32 / chroma_me=1 / trellis=2 / 8x8dct=1 / cqm=0 / deadzone=21,11 / fast_pskip=0 / chroma_qp_offset=-2 / threads=12 / lookahead_threads=1 / sliced_threads=0 / nr=0 / decimate=0 / interlaced=0 / bluray_compat=0 / constrained_intra=0 / bframes=6 / b_pyramid=2 / b_adapt=2 / b_bias=0 / direct=3 / weightb=1 / open_gop=0 / weightp=2 / keyint=240 / keyint_min=23 / scenecut=40 / intra_refresh=0 / rc=2pass / mbtree=0 / bitrate=11152 / ratetol=1.0 / qcomp=0.60 / qpmin=0 / qpmax=69 / qpstep=4 / cplxblur=20.0 / qblur=0.5 / ip_ratio=1.40 / pb_ratio=1.30 / aq=1:0.70
Язык : English
Default : Да
Forced : Нет

Аудио #1
Идентификатор : 2
Формат : AC-3
Формат/Информация : Audio Coding 3
Расширение режима : CM (complete main)
Параметр Endianness формата : Big
Идентификатор кодека : A_AC3
Продолжительность : 2 ч. 12 м.
Вид битрейта : Постоянный
Битрейт : 640 Кбит/сек
Каналы : 6 каналов
Расположение каналов : Front: L C R, Side: L R, LFE
Частота : 48,0 КГц
Битовая глубина : 16 бит
Метод сжатия : С потерями
Размер потока : 609 Мбайт (5%)
Заголовок : Rus
Язык : Russian
Default : Да
Forced : Нет

Аудио #2
Идентификатор : 3
Формат : AC-3
Формат/Информация : Audio Coding 3
Расширение режима : CM (complete main)
Параметр Endianness формата : Big
Идентификатор кодека : A_AC3
Продолжительность : 2 ч. 12 м.
Вид битрейта : Постоянный
Битрейт : 640 Кбит/сек
Каналы : 6 каналов
Расположение каналов : Front: L C R, Side: L R, LFE
Частота : 48,0 КГц
Битовая глубина : 16 бит
Метод сжатия : С потерями
Размер потока : 609 Мбайт (5%)
Заголовок : Eng
Язык : English
Default : Нет
Forced : Нет

Текст #1
Идентификатор : 4
Формат : UTF-8
Идентификатор кодека : S_TEXT/UTF8
Идентификатор кодека/Информация : UTF-8 Plain Text
Заголовок : Rus
Язык : Russian
Default : Нет
Forced : Нет

Текст #2
Идентификатор : 5
Формат : UTF-8
Идентификатор кодека : S_TEXT/UTF8
Идентификатор кодека/Информация : UTF-8 Plain Text
Заголовок : Eng
Язык : English
Default : Нет
Forced : Нет

Меню
00:00:00.000 : :Chapter 01
00:09:13.219 : :Chapter 02
00:17:03.022 : :Chapter 03
00:23:05.050 : :Chapter 04
00:30:18.691 : :Chapter 05
00:36:12.044 : :Chapter 06
00:43:43.203 : :Chapter 07
00:50:28.608 : :Chapter 08
00:55:32.037 : :Chapter 09
01:05:34.764 : :Chapter 10
01:13:27.069 : :Chapter 11
01:19:15.709 : :Chapter 12
01:24:15.258 : :Chapter 13
01:31:07.587 : :Chapter 14
01:36:41.128 : :Chapter 15
01:43:42.257 : :Chapter 16
01:49:40.949 : :Chapter 17
01:54:17.934 : :Chapter 18
02:02:27.506 : :Chapter 19
02:08:18.691 : :Chapter 20
загрузка...
Правила, инструкции, FAQ!!!
Торрент  Добавлен [28 июл 2013, 22:53] Скачать торрент
Скачать торрент
[ Размер 29.39 КБ / Просмотров 6 ]

Статус  
 
Размер  11.54 ГБ
Приватный: Нет (DHT включён)
.torrent скачан  0
Как залить торрент? | Как скачать Torrent? | Как смотреть и слушать онлайн?  


     Отправить личное сообщение
   
Страница 1 из 1
Показать сообщения за:  Поле сортировки  
Начать новую тему Ответить на тему

   Похожие торренты   Автор   Ответы   Просмотры   Последнее сообщение 
В этой теме нет новых непрочитанных сообщений. Скачать торрент Проверен Киллер Джо / Killer Joe (2011) BDRip 1080p | Unrated | D, L2

в форуме 720p | 1080p, Размер: 7.76 ГБ, Здоровье: 100%

Гость

0
106|101

75
100

25 июл 2015, 22:56

Гость Перейти к последнему сообщению

В этой теме нет новых непрочитанных сообщений. Скачать торрент Проверен Чужой против Хищника / AVP: Alien vs. Predator (2004) BDRip 1080p | D, Р, А | UNRATED

в форуме 720p | 1080p, Размер: 15.73 ГБ, Здоровье: 100%

Гость

0
14|6

126
2

17 окт 2015, 18:35

Гость Перейти к последнему сообщению

В этой теме нет новых непрочитанных сообщений. Скачать торрент Полупрофессионал / Semi-Pro [Unrated] (Кент Альтерман) [1080p] [2008 г., комедия, спорт, BDRip]

в форуме 720p | 1080p, Размер: 8.26 ГБ, Здоровье: 0%

Anonymous

0
0|0

19
1

25 фев 2014, 22:41

Anonymous Перейти к последнему сообщению

В этой теме нет новых непрочитанных сообщений. Скачать торрент Проверен Война / War (2007) BDRip | Лицензия, P, P2, A | UNRATED

в форуме Боевики, Размер: 2.45 ГБ, Здоровье: 100%

Anonymous

0
98|9

57
0

24 июл 2014, 17:44

Anonymous Перейти к последнему сообщению

В этой теме нет новых непрочитанных сообщений. Скачать торрент Пила 4 / Saw IV (2007) BDRip 720p | Unrated Director's Cut

в форуме 720p | 1080p, Размер: 7.87 ГБ, Здоровье: 0%

Anonymous

0
0|0

23
0

18 фев 2014, 21:32

Anonymous Перейти к последнему сообщению



Сейчас этот форум просматривают: нет зарегистрированных пользователей и гости: 2


Вы не можете начинать темы
Вы не можете отвечать на сообщения
Вы не можете редактировать свои сообщения
Вы не можете удалять свои сообщения
Вы не можете добавлять вложения

Перейти:  

!ВНИМАНИЕ!
 Ресурс не предоставляет электронные версии произведений, а занимается лишь коллекционированием и каталогизацией ссылок, присылаемых и публикуемых на форуме нашими читателями. Если вы являетесь правообладателем какого-либо представленного материала и не желаете чтобы ссылка на него находилась в нашем каталоге, свяжитесь с нами и мы незамедлительно удалим её. Файлы для обмена на трекере предоставлены пользователями сайта, и администрация не несёт ответственности за их содержание. Просьба не заливать файлы, защищенные авторскими правами, а также файлы нелегального содержания!