На всех торрентах на трекере установлена скидка на скачивание в размере 100 процентов(а).
 Возможность скачивания торрента НЕ зависит от ограничений при низком ратио, низком аплоаде, требуемом ратио или требуемом аплоаде.


Начать новую тему Ответить на тему
Статистика раздачи
Размер: 9.86 ГБ | Добавлен: 28 июл 2013, 12:05 | Скачали: 1
Сидеров: 0  [0 байт/сек]    Личеров: 0  [0 байт/сек]
Пред. тема | След. тема 

Автор
Сообщение

СообщениеДобавлено: 28 июл 2013, 12:05 

Название: Код доступа «Кейптаун»
Оригинальное название: Safe House
Год выхода: 2012
Жанр: Боевик, триллер, криминал, детектив
Режиссер: Дэниэл Эспиноза

В ролях: Дензел Вашингтон, Райан Рейнольдс, Вера Фармига, Брендан Глисон, Сэм Шепард, Рубен Бладес, Нора Арнезедер, Роберт Патрик, Лиам Каннингэм, Юэль Киннаман

О фильме:
Выпускник Гарварда Мэтт мечтает со своей невестой переехать в Париж. Но она не знает, что уже год он работает на ЦРУ.
Легендарный агент ЦРУ Фрост владеет секретной информацией. Но он вышел из-под контроля, и теперь его главное правило: «не доверяй никому — тебя предаст каждый».
Их пути пересекутся в одном из красивейших городов мира — Кейптауне, где каждый должен будет сделать свой выбор.


Страна: США, ЮАР
Студия: Relativity Media, Intrepid Pictures, Stuber Productions, Moonlighting Films South Africa
Продолжительность: 01:54:54
Перевод: Дубляж [лицензия]


Качество: BDRip 720p
Видео: AVC, 1280x534 (2.40:1) at 23.976 fps, AVC at 11 390 kbps avg, 0.680 bit/pixel, crf
Аудио #1: 48 kHz, AC3 Dolby Digital, 3/2 (L,C,R,l,r) + LFE ch, 448.00 kbps - Russian (dub)
Аудио #2: 48 kHz, AC3 Dolby Digital, 3/2 (L,C,R,l,r) + LFE ch, 448.00 kbps - English (original)
Субтитры: Русские (полные, форсированные), Украинские (форсированные), Английские (полные, SDH, SDH цветные), Французские, Испанские
Дополнительно: Сохранены оригинальные чаптеры как на Blu-ray.

Автор рипа:

General
Unique ID : 251865168804884401193823379362969880909 (0xBD7B7790E9BBFF0A80E4429A8C39094D)
Complete name : C:torrentsSafe.House.2012.720p.BluRay.x264-LEONARDO.mkv
Format : Matroska
Format version : Version 2
File size : 9.86 GiB
Duration : 1h 54mn
Overall bit rate : 12.3 Mbps
Movie name : -=LEONARDO=-
Encoded date : UTC 2013-07-22 09:10:52
Writing application : mkvmerge v5.8.0 ('No Sleep / Pillow') built on Sep 2 2012 15:37:04
Writing library : libebml v1.2.3 + libmatroska v1.3.0
Attachment : Yes

Video
ID : 1
Format : AVC
Format/Info : Advanced Video Codec
Format profile : High@L4.1
Format settings, CABAC : Yes
Format settings, ReFrames : 8 frames
Codec ID : V_MPEG4/ISO/AVC
Duration : 1h 54mn
Bit rate : 11.1 Mbps
Width : 1 280 pixels
Height : 534 pixels
Display aspect ratio : 2.40:1
Frame rate mode : Constant
Frame rate : 23.976 fps
Color space : YUV
Chroma subsampling : 4:2:0
Bit depth : 8 bits
Scan type : Progressive
Bits/(Pixel*Frame) : 0.680
Stream size : 8.95 GiB (91%)
Writing library : x264 core 125 r2208 d9d2288
Encoding settings : cabac=1 / ref=8 / deblock=1:-1:-1 / analyse=0x3:0x133 / me=umh / subme=10 / psy=1 / psy_rd=1.00:0.05 / mixed_ref=1 / me_range=32 / chroma_me=1 / trellis=2 / 8x8dct=1 / cqm=0 / deadzone=21,11 / fast_pskip=0 / chroma_qp_offset=-3 / threads=3 / lookahead_threads=1 / sliced_threads=0 / nr=0 / decimate=1 / interlaced=0 / bluray_compat=0 / constrained_intra=0 / bframes=8 / b_pyramid=2 / b_adapt=2 / b_bias=0 / direct=1 / weightb=1 / open_gop=0 / weightp=2 / keyint=250 / keyint_min=23 / scenecut=40 / intra_refresh=0 / rc=crf / mbtree=0 / crf=17.5 / qcomp=0.60 / qpmin=0 / qpmax=69 / qpstep=4 / ip_ratio=1.40 / pb_ratio=1.30 / aq=2:1.00
Language : English
Default : Yes
Forced : No

Audio #1
ID : 2
Format : AC-3
Format/Info : Audio Coding 3
Mode extension : CM (complete main)
Format settings, Endianness : Big
Codec ID : A_AC3
Duration : 1h 54mn
Bit rate mode : Constant
Bit rate : 448 Kbps
Channel(s) : 6 channels
Channel positions : Front: L C R, Side: L R, LFE
Sampling rate : 48.0 KHz
Bit depth : 16 bits
Compression mode : Lossy
Stream size : 368 MiB (4%)
Language : Russian
Default : Yes
Forced : Yes

Audio #2
ID : 3
Format : AC-3
Format/Info : Audio Coding 3
Mode extension : CM (complete main)
Format settings, Endianness : Big
Codec ID : A_AC3
Duration : 1h 54mn
Bit rate mode : Constant
Bit rate : 448 Kbps
Channel(s) : 6 channels
Channel positions : Front: L C R, Side: L R, LFE
Sampling rate : 48.0 KHz
Bit depth : 16 bits
Compression mode : Lossy
Stream size : 368 MiB (4%)
Language : English
Default : No
Forced : No

Text #1
ID : 4
Format : UTF-8
Codec ID : S_TEXT/UTF8
Codec ID/Info : UTF-8 Plain Text
Title : Forced
Language : Russian
Default : Yes
Forced : No

Text #2
ID : 5
Format : UTF-8
Codec ID : S_TEXT/UTF8
Codec ID/Info : UTF-8 Plain Text
Title : Full (BD CEE)
Language : Russian
Default : No
Forced : No

Text #3
ID : 6
Format : UTF-8
Codec ID : S_TEXT/UTF8
Codec ID/Info : UTF-8 Plain Text
Title : Full (voronine)
Language : Russian
Default : No
Forced : No

Text #4
ID : 7
Format : UTF-8
Codec ID : S_TEXT/UTF8
Codec ID/Info : UTF-8 Plain Text
Title : Comments
Language : Russian
Default : No
Forced : No

Text #5
ID : 8
Format : UTF-8
Codec ID : S_TEXT/UTF8
Codec ID/Info : UTF-8 Plain Text
Title : Forced
Language : English
Default : No
Forced : No

Text #6
ID : 9
Format : UTF-8
Codec ID : S_TEXT/UTF8
Codec ID/Info : UTF-8 Plain Text
Title : Full
Language : English
Default : No
Forced : No

Text #7
ID : 10
Format : UTF-8
Codec ID : S_TEXT/UTF8
Codec ID/Info : UTF-8 Plain Text
Title : SDH
Language : English
Default : No
Forced : No

Text #8
ID : 11
Format : UTF-8
Codec ID : S_TEXT/UTF8
Codec ID/Info : UTF-8 Plain Text
Title : SDH (Colored)
Language : English
Default : No
Forced : No

Text #9
ID : 12
Format : UTF-8
Codec ID : S_TEXT/UTF8
Codec ID/Info : UTF-8 Plain Text
Title : Comments
Language : English
Default : No
Forced : No

Text #10
ID : 13
Format : UTF-8
Codec ID : S_TEXT/UTF8
Codec ID/Info : UTF-8 Plain Text
Title : Forced (R5)
Language : Ukrainian
Default : No
Forced : No

Text #11
ID : 14
Format : UTF-8
Codec ID : S_TEXT/UTF8
Codec ID/Info : UTF-8 Plain Text
Title : Full (R5)
Language : Ukrainian
Default : No
Forced : No

Text #12
ID : 15
Format : UTF-8
Codec ID : S_TEXT/UTF8
Codec ID/Info : UTF-8 Plain Text
Language : French
Default : No
Forced : No

Text #13
ID : 16
Format : UTF-8
Codec ID : S_TEXT/UTF8
Codec ID/Info : UTF-8 Plain Text
Language : Spanish
Default : No
Forced : No

Menu
00:00:00.000 : en:Chapter 1
00:04:52.000 : en:Chapter 2
00:13:44.615 : en:Chapter 3
00:18:44.456 : en:Chapter 4
00:23:58.228 : en:Chapter 5
00:29:26.931 : en:Chapter 6
00:37:19.987 : en:Chapter 7
00:41:23.981 : en:Chapter 8
00:48:29.031 : en:Chapter 9
00:56:48.780 : en:Chapter 10
01:00:53.983 : en:Chapter 11
01:07:02.309 : en:Chapter 12
01:11:17.982 : en:Chapter 13
01:16:25.581 : en:Chapter 14
01:21:23.128 : en:Chapter 15
01:26:14.002 : en:Chapter 16
01:29:25.109 : en:Chapter 17
01:35:34.478 : en:Chapter 18
01:44:25.217 : en:Chapter 19
01:49:44.202 : en:Chapter 20





загрузка...
Правила, инструкции, FAQ!!!
Торрент  Добавлен [28 июл 2013, 12:05] Скачать торрент
Скачать торрент
[ Размер 25.19 КБ / Просмотров 8 ]

Статус  
 
Размер  9.86 ГБ
Приватный: Нет (DHT включён)
.torrent скачан  1
Как залить торрент? | Как скачать Torrent? | Как смотреть и слушать онлайн?  


     Отправить личное сообщение
   
Страница 1 из 1
Показать сообщения за:  Поле сортировки  
Начать новую тему Ответить на тему

   Похожие торренты   Автор   Ответы   Просмотры   Последнее сообщение 
В этой теме нет новых непрочитанных сообщений. Скачать торрент Тихая гавань / Safe Haven (Лассе Халльстрём / Lasse Hallström) [2013, США, триллер, драма, мелодрама, детектив, BDRip 720p] Dub

в форуме 720p | 1080p, Размер: 6.68 ГБ, Здоровье: 0%

Anonymous

0
0|0

16
0

25 фев 2014, 22:40

Anonymous Перейти к последнему сообщению

В этой теме нет новых непрочитанных сообщений. Скачать торрент Проверен (House) Jimmy Somerville - Safe (CD, Maxi-Single) - 1997, FLAC (image+.cue), lossless

в форуме Зарубежная музыка, Размер: 230.26 МБ, Здоровье: 0%

Anonymous

0
0|0

4
0

16 авг 2016, 20:59

Anonymous Перейти к последнему сообщению

В этой теме нет новых непрочитанных сообщений. Скачать торрент Проверен (Melodic rock) Safe Haven - Safe Haven - 2004, MP3 (tracks), 320 kbps

в форуме AOR (Melodic Hard Rock, Arena rock), Размер: 113.23 МБ, Здоровье: 0%

Anonymous

0
0|0

2
0

08 окт 2016, 11:11

Anonymous Перейти к последнему сообщению

В этой теме нет новых непрочитанных сообщений. Скачать торрент Дом покера / The Poker House (2008) BDRip 720p | A

в форуме 720p | 1080p, Размер: 4.67 ГБ, Здоровье: 0%

Anonymous

0
0|0

23
0

06 янв 2014, 00:32

Anonymous Перейти к последнему сообщению

В этой теме нет новых непрочитанных сообщений. Скачать торрент Проверен Дом у озера / The Lake House (2006) BDRip 720p

в форуме 720p | 1080p, Размер: 2.87 ГБ, Здоровье: 100%

Гость

0
358|35

32
654

02 янв 2015, 15:41

Гость Перейти к последнему сообщению



Сейчас этот форум просматривают: нет зарегистрированных пользователей и гости: 2


Вы не можете начинать темы
Вы не можете отвечать на сообщения
Вы не можете редактировать свои сообщения
Вы не можете удалять свои сообщения
Вы не можете добавлять вложения

Перейти:  

!ВНИМАНИЕ!
 Ресурс не предоставляет электронные версии произведений, а занимается лишь коллекционированием и каталогизацией ссылок, присылаемых и публикуемых на форуме нашими читателями. Если вы являетесь правообладателем какого-либо представленного материала и не желаете чтобы ссылка на него находилась в нашем каталоге, свяжитесь с нами и мы незамедлительно удалим её. Файлы для обмена на трекере предоставлены пользователями сайта, и администрация не несёт ответственности за их содержание. Просьба не заливать файлы, защищенные авторскими правами, а также файлы нелегального содержания!