На всех торрентах на трекере установлена скидка на скачивание в размере 100 процентов(а).
 Возможность скачивания торрента НЕ зависит от ограничений при низком ратио, низком аплоаде, требуемом ратио или требуемом аплоаде.


Начать новую тему Ответить на тему
Статистика раздачи
Размер: 7.95 ГБ | Добавлен: 27 июл 2013, 22:35 | Скачали: 1
Сидеров: 0  [0 байт/сек]    Личеров: 0  [0 байт/сек]
Пред. тема | След. тема 

Автор
Сообщение

СообщениеДобавлено: 27 июл 2013, 22:35 

Год выпуска: 1997
Страна: Германия, Бельгия
Жанр: боевик, драма, комедия, криминал
Продолжительность: 87 мин.
Перевод: Дублированный, многоголосый закадровый, английский, оригинальная дорожка

Режиссер: Томас Ян
Продюссер: Андре Хеннике, Тиль Швайгер, Томас Циклер
Сценарий: Томас Ян, Тиль Швайгер
Премьера в мире: 20 февраля 1997
7.80 (8 522)

В ролях: Тиль Швайгер, Ян Йозеф Лиферс, Тьерри Ван Вервеке, Мориц Бляйбтрой, Хуб Стапель, Леонард Лэнсинк, Ральф Херфорт, Корнелия Фробесс, Рутгер Хауэр, Кристиана Пауль
Описание:
"На небесах только и говорят, что о море, о том, как оно прекрасно. О закате над океаном. О том, как солнце, погружаясь в волны, стало алым, как кровь, и океан впитывал энергию светила в себя. И солнце было укрощено, и огонь уже догорал в глубине.
А ты? Что ты им скажешь?..."
И что тогда делать? Когда после диагноза врачей узнаешь что болен раком и жить осталось считанные дни... А видеть вживую море не довелось... Быть полным лохом на Небесах?

Мартин и Руди, узнав что смертельно больны и которые никогда не были на море, напившись текилы, в больничных халатах отправляются прямиком на побережье. А если это сделать на ворованом Мерседесе небесного цвета с миллионом в багажнике, то оставшееся время станет намного интересней прожитой до этого момента жизни..
Доп. информация:
Уникальный идентификатор : 223282212904907838251296974780203650085 (0xA7FA9709787D34DC9C48CBC6C315CC25)
Полное имя :Knockin'.on.Heaven's.door.1997.BDRip.1080p.mkv
Формат : Matroska
Версия формата : Version 2
Размер файла : 7,95 Гбайт
Продолжительность : 1 ч. 28 м.
Общий поток : 12,8 Мбит/сек
Дата кодирования : UTC 2011-08-19 19:18:18
Программа кодирования : mkvmerge v4.9.1 ('Ich will') сборка от Jul 11 2011 23:53:15
Библиотека кодирования : libebml v1.2.1 + libmatroska v1.1.1

Видео
Идентификатор : 1
Формат : AVC
Формат/Информация : Advanced Video Codec
Профиль формата : High@L5.0
Параметр CABAC формата : Да
Параметр ReFrames формата : 12 кадров
Идентификатор кодека : V_MPEG4/ISO/AVC
Продолжительность : 1 ч. 28 м.
Битрейт : 9090 Кбит/сек
Номинальный битрейт : 8522 Кбит/сек
Ширина : 1920 пикс.
Высота : 816 пикс.
Соотношение сторон : 2,35:1
Частота кадров : 23,976 кадр/сек
Цветовое пространство : YUV
Подвыборка цветности : 4:2:0
Битовая глубина : 8 бит
Тип развёртки : Прогрессивная
Бит/(Пиксели*Кадры) : 0.242
Размер потока : 5,65 Гбайт (71%)
Заголовок : BDRip 1080p by FREEISLAND
Библиотека кодирования : x264 core 116 r2044 392e762
Настройки программы : cabac=1 / ref=12 / deblock=1:-3:-3 / analyse=0x3:0x133 / me=esa / subme=10 / psy=1 / psy_rd=1.00:0.00 / mixed_ref=1 / me_range=48 / chroma_me=1 / trellis=2 / 8x8dct=1 / cqm=0 / deadzone=21,11 / fast_pskip=0 / chroma_qp_offset=-2 / threads=9 / sliced_threads=0 / nr=0 / decimate=1 / interlaced=0 / bluray_compat=0 / constrained_intra=0 / bframes=16 / b_pyramid=2 / b_adapt=2 / b_bias=35 / direct=1 / weightb=1 / open_gop=0 / weightp=2 / keyint=250 / keyint_min=23 / scenecut=40 / intra_refresh=0 / rc=2pass / mbtree=0 / bitrate=8522 / ratetol=1.0 / qcomp=1.00 / qpmin=0 / qpmax=51 / qpstep=2 / cplxblur=20.0 / qblur=0.5 / ip_ratio=1.40 / pb_ratio=1.30 / aq=1:1.00
Язык : German
Основные цвета : BT.709-5, BT.1361, IEC 61966-2-4, SMPTE RP177
Характеристики трансфера : BT.709-5, BT.1361
Коэффициенты матрицы : BT.709-5, BT.1361, IEC 61966-2-4 709, SMPTE RP177

Аудио #1
Идентификатор : 2
Формат : AC-3
Формат/Информация : Audio Coding 3
Расширение режима : CM (complete main)
Идентификатор кодека : A_AC3
Продолжительность : 1 ч. 28 м.
Вид битрейта : Постоянный
Битрейт : 384 Кбит/сек
Каналы : 2 канала
Расположение каналов : Front: L R
Частота : 48,0 КГц
Битовая глубина : 16 бит
Метод сжатия : С потерями
Размер потока : 244 Мбайт (3%)
Заголовок : AC3 2ch DUB "Мосфильм"
Язык : Russian

Аудио #2
Идентификатор : 3
Формат : DTS
Формат/Информация : Digital Theater Systems
Профиль формата : MA / Core
Идентификатор кодека : A_DTS
Продолжительность : 1 ч. 28 м.
Вид битрейта : Переменный
Битрейт : 1561 Кбит/сек / 1510 Кбит/сек
Каналы : 6 каналов
Расположение каналов : Front: L C R, Side: L R, LFE
Частота : 48,0 КГц
Битовая глубина : 16 бит
Метод сжатия : Без потерь / Lossy
Заголовок : DTS-HD MA 5.1, MVO CP Digital
Язык : Russian

Аудио #3
Идентификатор : 4
Формат : DTS
Формат/Информация : Digital Theater Systems
Идентификатор кодека : A_DTS
Продолжительность : 1 ч. 28 м.
Вид битрейта : Постоянный
Битрейт : 755 Кбит/сек
Каналы : 6 каналов
Расположение каналов : Front: L C R, Side: L R, LFE
Частота : 48,0 КГц
Битовая глубина : 24 бит
Метод сжатия : С потерями
Размер потока : 480 Мбайт (6%)
Заголовок : DTS 5.1 768 kbps
Язык : German

Аудио #4
Идентификатор : 5
Формат : DTS
Формат/Информация : Digital Theater Systems
Идентификатор кодека : A_DTS
Продолжительность : 1 ч. 28 м.
Вид битрейта : Постоянный
Битрейт : 755 Кбит/сек
Каналы : 6 каналов
Расположение каналов : Front: L C R, Side: L R, LFE
Частота : 48,0 КГц
Битовая глубина : 24 бит
Метод сжатия : С потерями
Размер потока : 480 Мбайт (6%)
Заголовок : DTS 5.1 768 kbps
Язык : English

Текст #1
Идентификатор : 6
Формат : VobSub
Режим смешивания : zlib
Идентификатор кодека : S_VOBSUB
Идентификатор кодека/Информация : The same subtitle format used on DVDs
Заголовок : CP Digital
Язык : Russian

Текст #2
Идентификатор : 7
Формат : VobSub
Режим смешивания : zlib
Идентификатор кодека : S_VOBSUB
Идентификатор кодека/Информация : The same subtitle format used on DVDs
Заголовок : Тивионика
Язык : Russian

Текст #3
Идентификатор : 8
Формат : VobSub
Режим смешивания : zlib
Идентификатор кодека : S_VOBSUB
Идентификатор кодека/Информация : The same subtitle format used on DVDs
Язык : German

Текст #4
Идентификатор : 9
Формат : VobSub
Режим смешивания : zlib
Идентификатор кодека : S_VOBSUB
Идентификатор кодека/Информация : The same subtitle format used on DVDs
Язык : English

Меню
00:00:00.000 : en:Chapter 01
00:07:58.394 : en:Chapter 02
00:15:45.778 : en:Chapter 03
00:20:59.633 : en:Chapter 04
00:26:37.512 : en:Chapter 05
00:32:24.400 : en:Chapter 06
00:39:46.384 : en:Chapter 07
00:47:04.612 : en:Chapter 08
00:54:11.831 : en:Chapter 09
01:02:44.844 : en:Chapter 10
01:11:54.059 : en:Chapter 11
01:19:49.408 : en:Chapter 12


Качество: BDRip 1080p
Формат: MKV
Видео кодек: H.264
Аудио кодек: AC3
Видео: 1920 x 816 (2.353) at 23.976 fps AVC at 9090 Кбит/сек High@L5.0
Аудио: AC-3 at 192 Кбит/сек 2 ch- русский(дубляж) "Мосфильм"
Аудио: DTS-HD MA 5.1, ~2365.00 Кбит/сек avg - русский многоголосый закадровый, CP Digital
Аудио: DTS at 755 Кбит/сек 6 каналов, 48,0 КГц - немецкий
Аудио: DTS at 755 Кбит/сек 6 каналов, 48,0 КГц - английский
Субтитры: русские(CP Digital, Тивионика), немецкие, английские - VobSub



Релиз от:
загрузка...
Правила, инструкции, FAQ!!!
Торрент  Добавлен [27 июл 2013, 22:35] Скачать торрент
Скачать торрент
[ Размер 40.19 КБ / Просмотров 9 ]

Статус  
 
Размер  7.95 ГБ
Приватный: Нет (DHT включён)
.torrent скачан  1
Как залить торрент? | Как скачать Torrent? | Как смотреть и слушать онлайн?  


     Отправить личное сообщение
   
Страница 1 из 1
Показать сообщения за:  Поле сортировки  
Начать новую тему Ответить на тему

   Похожие торренты   Автор   Ответы   Просмотры   Последнее сообщение 
В этой теме нет новых непрочитанных сообщений. Скачать торрент Проверен Достучаться до небес / Knockin' on Heaven's Door (Томас Ян / Thomas Jahn) [1997, Германия, драма, комедия, криминал, BDRip, 480p] Dub Мосфильм + MVO CP Digital + Dub English + German (Original) + sub (rus, eng, ger)

в форуме Фильмы для iPod, iPhone, iPad, Размер: 1.27 ГБ, Здоровье: 100%

Anonymous

0
100|20

70
1

11 май 2015, 01:24

Anonymous Перейти к последнему сообщению

В этой теме нет новых непрочитанных сообщений. Скачать торрент Проверен (Hard Rock/Heavy Metal) Heaven - Knockin On Heavens Door - 1985, FLAC (tracks+.cue), lossless

в форуме Classic Rock & Hard Rock, Размер: 523.07 МБ, Здоровье: 100%

Anonymous

0
5|1

3
1

05 сен 2016, 22:25

Anonymous Перейти к последнему сообщению

В этой теме нет новых непрочитанных сообщений. Скачать торрент Проверен (Blues/Rock/Reggae-Pop) [CD] Arthur Louis featuring Eric Clapton - Knockin' On Heaven's Door - 1976 (2000), FLAC (image+.cue), lossless

в форуме Blues (Texas, Chicago, Modern and Others), Размер: 307.59 МБ, Здоровье: 100%

Anonymous

0
2|1

0
0

16 окт 2016, 13:39

Anonymous Перейти к последнему сообщению

В этой теме нет новых непрочитанных сообщений. Скачать торрент Arthur Louis featuring Eric Clapton - Knockin' On Heaven's Door (1976) /2000, Music Avenue/ [FLAC|Lossless]<Blues, Blues Rock>

в форуме Джаз, Блюз, Соул, Размер: 306.66 МБ, Здоровье: 0%

Anonymous

0
0|0

68
0

24 фев 2014, 13:11

Anonymous Перейти к последнему сообщению

В этой теме нет новых непрочитанных сообщений. Скачать торрент Проверен (Rock) Достучаться до небес -Моя страна 2005, MP3 (tracks), VBR 192-320 kbps

в форуме Русский Рок, Размер: 48.02 МБ, Здоровье: 0%

Anonymous

0
0|0

1
0

22 авг 2016, 12:55

Anonymous Перейти к последнему сообщению



Сейчас этот форум просматривают: нет зарегистрированных пользователей и гости: 2


Вы не можете начинать темы
Вы не можете отвечать на сообщения
Вы не можете редактировать свои сообщения
Вы не можете удалять свои сообщения
Вы не можете добавлять вложения

Перейти:  

!ВНИМАНИЕ!
 Ресурс не предоставляет электронные версии произведений, а занимается лишь коллекционированием и каталогизацией ссылок, присылаемых и публикуемых на форуме нашими читателями. Если вы являетесь правообладателем какого-либо представленного материала и не желаете чтобы ссылка на него находилась в нашем каталоге, свяжитесь с нами и мы незамедлительно удалим её. Файлы для обмена на трекере предоставлены пользователями сайта, и администрация не несёт ответственности за их содержание. Просьба не заливать файлы, защищенные авторскими правами, а также файлы нелегального содержания!