На всех торрентах на трекере установлена скидка на скачивание в размере 100 процентов(а).
 Возможность скачивания торрента НЕ зависит от ограничений при низком ратио, низком аплоаде, требуемом ратио или требуемом аплоаде.


Начать новую тему Ответить на тему
Статистика раздачи
Размер: 4.37 ГБ | Добавлен: 27 июл 2013, 19:04 | Скачали: 1
Сидеров: 0  [0 байт/сек]    Личеров: 0  [0 байт/сек]
Пред. тема | След. тема 

Автор
Сообщение

СообщениеДобавлено: 27 июл 2013, 19:04 

Название: Место под соснами
Оригинальное название: The Place Beyond the Pines
Год выхода: 2012
Жанр: Драма, криминал
Режиссер: Дерек Сиенфрэнс

В ролях: Райан Гослинг, Брэдли Купер, Ева Мендес, Рэй Лиотта, Бен Мендельсон, Роуз Бирн, Махершалалхашбаз Али, Брюс Гринвуд, Харрис Юлин, Дэйн ДеХаан

Сюжет фильма:

История профессионального мотогонщика, который начинает грабить банки, чтобы содержать новорожденного сына. Однажды на его пути встает полицейский, и столкновение парней перерастает в личную войну.



Выпущено: США, Electric City Entertainment
Продолжительность: 02:20:13
Перевод: Дублированный, Английский

Качество: BDRip 720p (исходник Blu-ray Disc)
Видео: 1280х536, 3 566 Кбит/сек, 24.000 кадр/сек, 2.40:1, AVC, x264, 0.217 Бит/(Пиксели*Кадры), 2-pass
Аудио1: AC-3, 448 Кбит/сек, 6 канала(ов), 48,0 КГц - Дублированный
Аудио2: AC-3, 448 Кбит/сек, 6 канала(ов), 48,0 КГц - Английский
Субтитры: Русские
Чаптеры Есть




Format : Matroska
Format version : Version 4 / Version 2
File size : 4.37 GiB
Duration : 2h 20mn
Overall bit rate : 4 461 Kbps
Movie name : Место под соснами.(2012).BDRip.720p.NoLimits-Team
Encoded date : UTC 2013-07-27 05:32:54
Writing application : mkvmerge v6.3.0 ('You can't stop me!') built on Jun 28 2013 20:09:41
Writing library : libebml v1.3.0 + libmatroska v1.4.0

Video
ID : 1
Format : AVC
Format/Info : Advanced Video Codec
Format profile : High@L4.1
Format settings, CABAC : Yes
Format settings, ReFrames : 12 frames
Codec ID : V_MPEG4/ISO/AVC
Duration : 2h 20mn
Bit rate : 3 566 Kbps
Width : 1 280 pixels
Height : 536 pixels
Display aspect ratio : 2.40:1
Frame rate mode : Constant
Frame rate : 24.000 fps
Color space : YUV
Chroma subsampling : 4:2:0
Bit depth : 8 bits
Scan type : Progressive
Bits/(Pixel*Frame) : 0.217
Stream size : 3.41 GiB (78%)
Title : Место под соснами.(2012).BDRip.720p.NoLimits-Team_Release_denis_100
Writing library : x264 core 135 r2345 f0c1c53
Encoding settings : cabac=1 / ref=12 / deblock=1:-3:-3 / analyse=0x3:0x113 / me=umh / subme=11 / psy=1 / psy_rd=1.00:0.15 / mixed_ref=1 / me_range=32 / chroma_me=1 / trellis=2 / 8x8dct=1 / cqm=0 / deadzone=21,11 / fast_pskip=0 / chroma_qp_offset=-3 / threads=6 / lookahead_threads=1 / sliced_threads=0 / nr=0 / decimate=0 / interlaced=0 / bluray_compat=0 / constrained_intra=0 / bframes=8 / b_pyramid=2 / b_adapt=2 / b_bias=0 / direct=3 / weightb=1 / open_gop=0 / weightp=2 / keyint=250 / keyint_min=24 / scenecut=40 / intra_refresh=0 / rc=2pass / mbtree=0 / bitrate=3566 / ratetol=1.0 / qcomp=0.60 / qpmin=0 / qpmax=69 / qpstep=4 / cplxblur=20.0 / qblur=0.5 / ip_ratio=1.40 / pb_ratio=1.30 / aq=1:0.95
Language : English
Default : Yes
Forced : No

Audio #1
ID : 2
Format : AC-3
Format/Info : Audio Coding 3
Mode extension : CM (complete main)
Format settings, Endianness : Big
Codec ID : A_AC3
Duration : 2h 20mn
Bit rate mode : Constant
Bit rate : 448 Kbps
Channel(s) : 6 channels
Channel positions : Front: L C R, Side: L R, LFE
Sampling rate : 48.0 KHz
Bit depth : 16 bits
Compression mode : Lossy
Stream size : 449 MiB (10%)
Title : Дублированный
Language : Russian
Default : Yes
Forced : Yes

Audio #2
ID : 3
Format : AC-3
Format/Info : Audio Coding 3
Mode extension : CM (complete main)
Format settings, Endianness : Big
Codec ID : A_AC3
Duration : 2h 20mn
Bit rate mode : Constant
Bit rate : 448 Kbps
Channel(s) : 6 channels
Channel positions : Front: L C R, Side: L R, LFE
Sampling rate : 48.0 KHz
Bit depth : 16 bits
Compression mode : Lossy
Stream size : 449 MiB (10%)
Title : Original
Language : English
Default : No
Forced : No

Text
ID : 4
Format : UTF-8
Codec ID : S_TEXT/UTF8
Codec ID/Info : UTF-8 Plain Text
Title : Русские
Language : Russian
Default : No
Forced : No

Menu
00:00:00.000 : en:Chapter 01
00:11:50.375 : en:Chapter 02
00:21:43.291 : en:Chapter 03
00:33:08.708 : en:Chapter 04
00:40:35.916 : en:Chapter 05
00:52:02.666 : en:Chapter 06
01:03:16.208 : en:Chapter 07
01:12:53.625 : en:Chapter 08
01:22:57.500 : en:Chapter 09
01:34:39.500 : en:Chapter 10
01:49:16.000 : en:Chapter 11
02:06:21.208 : en:Chapter 12


x264 [info]: frame I:1034 Avg QP:17.69 size: 66101
x264 [info]: frame P:44422 Avg QP:19.10 size: 34798
x264 [info]: frame B:156465 Avg QP:20.75 size: 13419


Релиз Группа: Автор Рипа:

загрузка...
Правила, инструкции, FAQ!!!
Торрент  Добавлен [27 июл 2013, 19:04] Скачать торрент
Скачать торрент
[ Размер 22.3 КБ / Просмотров 14 ]

Статус  
 
Размер  4.37 ГБ
Приватный: Нет (DHT включён)
.torrent скачан  1
Как залить торрент? | Как скачать Torrent? | Как смотреть и слушать онлайн?  


     Отправить личное сообщение
   
Страница 1 из 1
Показать сообщения за:  Поле сортировки  
Начать новую тему Ответить на тему

   Похожие торренты   Автор   Ответы   Просмотры   Последнее сообщение 
В этой теме нет новых непрочитанных сообщений. Скачать торрент Проверен Квадрат - Warren R.P. / Уоррен Р.-П. - A Place to Come to / Место, куда я вернусь [2004, DjVu/FB2, RUS]

в форуме Зарубежная литература (XX и XXI век), Размер: 15.26 МБ, Здоровье: 100%

Anonymous

0
3|2

4
0

08 сен 2016, 19:35

Anonymous Перейти к последнему сообщению

В этой теме нет новых непрочитанных сообщений. Скачать торрент Проверен Кинг Стивен - Очень тесное место (A Very Tight Place) [vaska hulya, (ЛИ), 2015 г., 128 kbps, MP3]

в форуме Зарубежная фантастика, фэнтези, мистика, ужасы, Размер: 140.93 МБ, Здоровье: 0%

Anonymous

0
0|0

1
0

11 сен 2016, 12:20

Anonymous Перейти к последнему сообщению

В этой теме нет новых непрочитанных сообщений. Скачать торрент Проверен Kansas: There's Know Place Like Home (720p) [2009, Rock, BDRip]

в форуме Концерты (HD-Video), Размер: 8.7 ГБ, Здоровье: 100%

Anonymous

0
5|0

8
1

23 окт 2016, 19:13

Anonymous Перейти к последнему сообщению

В этой теме нет новых непрочитанных сообщений. Скачать торрент Проверен Kansas: There's Know Place Like Home [720p/DVD5] [2009 г., Rock, BDRip]

в форуме Концерты (HD-Video), Размер: 4.37 ГБ, Здоровье: 50%

Гость

0
1|2

95
3

29 апр 2015, 19:34

Гость Перейти к последнему сообщению

В этой теме нет новых непрочитанных сообщений. Скачать торрент Проверен Evangeline Adams / Адамс Е. - Astrology Or Your Place Among the Stars (With One Hundred Horoscopes of Famous People) / Астрология или ваше место среди звезд [2003, PDF, ENG]

в форуме Астрология, Размер: 39.39 МБ, Здоровье: 100%

Anonymous

0
3|1

0
0

11 сен 2016, 23:32

Anonymous Перейти к последнему сообщению



Сейчас этот форум просматривают: нет зарегистрированных пользователей и гости: 4


Вы не можете начинать темы
Вы не можете отвечать на сообщения
Вы не можете редактировать свои сообщения
Вы не можете удалять свои сообщения
Вы не можете добавлять вложения

Перейти:  

!ВНИМАНИЕ!
 Ресурс не предоставляет электронные версии произведений, а занимается лишь коллекционированием и каталогизацией ссылок, присылаемых и публикуемых на форуме нашими читателями. Если вы являетесь правообладателем какого-либо представленного материала и не желаете чтобы ссылка на него находилась в нашем каталоге, свяжитесь с нами и мы незамедлительно удалим её. Файлы для обмена на трекере предоставлены пользователями сайта, и администрация не несёт ответственности за их содержание. Просьба не заливать файлы, защищенные авторскими правами, а также файлы нелегального содержания!