На всех торрентах на трекере установлена скидка на скачивание в размере 100 процентов(а).
 Возможность скачивания торрента НЕ зависит от ограничений при низком ратио, низком аплоаде, требуемом ратио или требуемом аплоаде.


Начать новую тему Ответить на тему
Статистика раздачи
Размер: 5.11 ГБ | Добавлен: 25 июл 2013, 23:17 | Скачали: 0
Сидеров: 0  [0 байт/сек]    Личеров: 0  [0 байт/сек]
Пред. тема | След. тема 

Автор
Сообщение

СообщениеДобавлено: 25 июл 2013, 23:17 

Название: Секс – за деньги, любовь – бесплатно
Оригинальное название: Nessuno mi puo giudicare
Год выхода: 2011
Жанр: Комедия
Режиссер: Массимилиано Бруно

В ролях: Паола Кортеллези, Рауль Бова, Рокко Папалео, Анна Фольетта, Джованни Бруно, Хассани Шапи, Валерио Эпри, Паскуале Петроло, Люсия Оконе, Ава Ли

О фильме:
Тридцатипятилетняя Алиса живет со своим мужем и девятилетним сыном в уютной вилле в престижном районе Рима Париоли. Жизнь ее кажется золотой мечтой, но скоро все это превратится в кошмар. Ее муж погибает в результате несчастного случая, а сама она становится полным банкротом. Вместе со своим сыном она вынуждена покинуть Париоли и приютиться в предместье Рима, где оказывается совершенно чужой в океане людей самых разных национальностей и культур. Погрязшей в долгах Алисе приходится искать быстрый способ заработать деньги для себя и своего сына. Единственной возможностью для этого оказываются эскорт услуги.



Страна: Италия
Студия: Italian International Film, Rai Cinema
Продолжительность: 01:33:22
Перевод: Профессиональный многоголосый (НТВ+)


Кодек: MPEG-4 AVC
Качество: HDTVRip 1080p
Видео: 6950 Кбит/с, 1920x882, 25.000 кадр/с
Звук:
Аудио #1: Русский (АС3, 6 ch, 448 Кбит/с)
Аудио #2: Итальянский (АС3, 6 ch, 448 Кбит/с)

Семпл


Общее
Полное имя : Seks.za.dengi.ljubov.besplatno.2011.x264.HDTVRip(1080p).MediaClub.mkv
Формат : Matroska
Версия формата : Version 2
Размер файла : 5,11 Гбайт
Продолжительность : 1 ч. 33 м.
Общий поток : 7843 Кбит/сек
Дата кодирования : UTC 2013-07-23 17:58:12
Программа кодирования : mkvmerge v5.4.0 ('Piper') built on Mar 10 2012 13:34:39
Библиотека кодирования : libebml v1.2.3 + libmatroska v1.3.0

Видео
Идентификатор : 1
Формат : AVC
Формат/Информация : Advanced Video Codec
Профиль формата : High@L4.1
Параметр CABAC формата : Да
Параметр ReFrames формата : 4 кадра
Идентификатор кодека : V_MPEG4/ISO/AVC
Продолжительность : 1 ч. 33 м.
Битрейт : 6950 Кбит/сек
Ширина : 1920 пикселей
Высота : 882 пикселя
Соотношение сторон : 2,2:1
Режим частоты кадров : Постоянный
Частота кадров : 25,000 кадров/сек
Цветовое пространство : YUV
Субдискретизация насыщенности : 4:2:0
Битовая глубина : 8 бит
Тип развёртки : Прогрессивная
Бит/(Пиксели*Кадры) : 0.164
Размер потока : 4,43 Гбайт (87%)
Библиотека кодирования : x264 core 125 r2208 d9d2288
Настройки программы : cabac=1 / ref=4 / deblock=1:-2:-2 / analyse=0x3:0x133 / me=umh / subme=10 / psy=1 / psy_rd=1.00:0.15 / mixed_ref=1 / me_range=32 / chroma_me=1 / trellis=2 / 8x8dct=1 / cqm=0 / deadzone=21,11 / fast_pskip=0 / chroma_qp_offset=-3 / threads=6 / lookahead_threads=1 / sliced_threads=0 / nr=0 / decimate=0 / interlaced=0 / bluray_compat=0 / constrained_intra=0 / bframes=8 / b_pyramid=2 / b_adapt=2 / b_bias=0 / direct=3 / weightb=1 / open_gop=0 / weightp=2 / keyint=250 / keyint_min=25 / scenecut=40 / intra_refresh=0 / rc=2pass / mbtree=0 / bitrate=6950 / ratetol=1.0 / qcomp=0.60 / qpmin=0 / qpmax=69 / qpstep=4 / cplxblur=20.0 / qblur=0.5 / ip_ratio=1.40 / pb_ratio=1.30 / aq=1:0.80
Default : Да
Forced : Нет

Аудио #1
Идентификатор : 2
Формат : AC-3
Формат/Информация : Audio Coding 3
Расширение режима : CM (complete main)
Параметр Endianness формата : Big
Идентификатор кодека : A_AC3
Продолжительность : 1 ч. 33 м.
Вид битрейта : Постоянный
Битрейт : 448 Кбит/сек
Каналы : 6 каналов
Расположение каналов : Front: L C R, Side: L R, LFE
Частота : 48,0 КГц
Битовая глубина : 16 бит
Метод сжатия : С потерями
Размер потока : 299 Мбайт (6%)
Язык : Russian
Default : Да
Forced : Нет

Аудио #2
Идентификатор : 3
Формат : AC-3
Формат/Информация : Audio Coding 3
Расширение режима : CM (complete main)
Параметр Endianness формата : Big
Идентификатор кодека : A_AC3
Продолжительность : 1 ч. 33 м.
Вид битрейта : Постоянный
Битрейт : 448 Кбит/сек
Каналы : 6 каналов
Расположение каналов : Front: L C R, Side: L R, LFE
Частота : 48,0 КГц
Битовая глубина : 16 бит
Метод сжатия : С потерями
Задержка видео : 2 с. 0 мс.
Размер потока : 299 Мбайт (6%)
Язык : Italian
Default : Нет
Forced : Нет


Релиз от:
загрузка...
Правила, инструкции, FAQ!!!
Торрент  Добавлен [25 июл 2013, 23:17] Скачать торрент
Скачать торрент
[ Размер 26.1 КБ / Просмотров 7 ]

Статус  
 
Размер  5.11 ГБ
Приватный: Нет (DHT включён)
.torrent скачан  0
Как залить торрент? | Как скачать Torrent? | Как смотреть и слушать онлайн?  


     Отправить личное сообщение
   
Страница 1 из 1
Показать сообщения за:  Поле сортировки  
Начать новую тему Ответить на тему

   Похожие торренты   Автор   Ответы   Просмотры   Последнее сообщение 
В этой теме нет новых непрочитанных сообщений. Скачать торрент Проверен Любовь, секс и Лос-Анджелес / Cavemen (2013) BDRip 1080p | P

в форуме 720p | 1080p, Размер: 7.05 ГБ, Здоровье: 100%

Anonymous

0
7|0

28
45

20 май 2014, 21:21

Anonymous Перейти к последнему сообщению

В этой теме нет новых непрочитанных сообщений. Скачать торрент Любовь, секс и химия / Better Living Through Chemistry (2013) BDRip 1080p

в форуме 720p | 1080p, Размер: 8.33 ГБ, Здоровье: 100%

Anonymous

0
15|1

39
117

21 апр 2014, 17:58

Anonymous Перейти к последнему сообщению

В этой теме нет новых непрочитанных сообщений. Скачать торрент Проверен Манфред Кетс де Врис | Секс, деньги, счастье и смерть: В поисках себя (2011) [FB2, MOBI, EPUB, DOCX]

в форуме Популярная психология, Размер: 2.92 МБ, Здоровье: 100%

Anonymous

0
26|4

23
8

19 янв 2016, 19:02

Anonymous Перейти к последнему сообщению

В этой теме нет новых непрочитанных сообщений. Скачать торрент Проверен Джуди Даттон | Любовь и секс. Как мы ими занимаемся (2011) [FB2]

в форуме Популярная психология, Размер: 2.33 МБ, Здоровье: 100%

Anonymous

0
156|3

86
14

19 янв 2016, 21:10

Anonymous Перейти к последнему сообщению

В этой теме нет новых непрочитанных сообщений. Скачать торрент Проверен Михаил Ляховицкий | Деньги, секс, духовность и другие приключения (2014) [DJVU]

в форуме Эзотерика, гадания, магия, фен-шуй, Размер: 1.94 МБ, Здоровье: 100%

Anonymous

0
5|1

5
0

11 дек 2015, 00:32

Anonymous Перейти к последнему сообщению



Сейчас этот форум просматривают: нет зарегистрированных пользователей и гости: 3


Вы не можете начинать темы
Вы не можете отвечать на сообщения
Вы не можете редактировать свои сообщения
Вы не можете удалять свои сообщения
Вы не можете добавлять вложения

Перейти:  

!ВНИМАНИЕ!
 Ресурс не предоставляет электронные версии произведений, а занимается лишь коллекционированием и каталогизацией ссылок, присылаемых и публикуемых на форуме нашими читателями. Если вы являетесь правообладателем какого-либо представленного материала и не желаете чтобы ссылка на него находилась в нашем каталоге, свяжитесь с нами и мы незамедлительно удалим её. Файлы для обмена на трекере предоставлены пользователями сайта, и администрация не несёт ответственности за их содержание. Просьба не заливать файлы, защищенные авторскими правами, а также файлы нелегального содержания!