На всех торрентах на трекере установлена скидка на скачивание в размере 100 процентов(а).
 Возможность скачивания торрента НЕ зависит от ограничений при низком ратио, низком аплоаде, требуемом ратио или требуемом аплоаде.


Начать новую тему Ответить на тему
Статистика раздачи
Размер: 7.09 ГБ | Добавлен: 24 июл 2013, 21:33 | Скачали: 0
Сидеров: 2  [0 байт/сек]    Личеров: 0  [0 байт/сек]
Пред. тема | След. тема 

Автор
Сообщение

СообщениеДобавлено: 24 июл 2013, 21:33 

Название: Братья Ньютон
Оригинальное название: The Newton Boys
Год выпуска: 1998
Жанр: Боевик, драма, криминал, вестерн, история
Режиссер: Ричард Линклейтер

В ролях: Мэттью МакКонахи, Скит Ульрих, Этан Хоук, Гэйл Кронау, Винсент Д`Онофрио, Jena Karam, Джулианна Маргулис, Кэйси МакОлиффи, Дуайт Йоакам, Чарльз Ганнинг

О фильме: Однажды четырем молодым братьям-южанам надоело влачить нищенское существование и зарабатывать скудные крохи тяжелым трудом. Большие деньги были совсем рядом, братья уже чувствовали их запах. Для того, чтобы заполучить заветные зеленые купюры, нужно было просто немного наглости и куража. А потом уже весь мир будет у тебя в кармане… За пять лет семейная банда Ньютонов с успехом опустошила восемьдесят банков в США и Канаде. Для триумфа им не доставало лишь ограбления, которое смогло бы занять место в истории криминалистики. Именно его братья и задумали совершить…


Страна: США
Студия: 20th Century Fox Film Corporation, Detour Filmproduction, Newton Boys Ventures Inc.
Продолжительность: 02:02:30
Перевод: Профессиональный двухголосый (R5), профессиональный многоголосый (Премьер)


Кодек: x264
Качество: BDRip 720p
Видео: MPEG-4 AVC, 7000 Кбит/с, 1280x544, 23.976 кадр/с
Аудио #1: Русский (AC3, 6 ch, 448 Кбит/с) / Профессиональный двухголосый (R5)
Аудио #2: Русский (AC3, 2 ch, 192 Кбит/с) / Профессиональный многоголосый (Премьер)
Аудио #3: Английский (AC3, 6 ch, 640 Кбит/с)
Субтитры: Русские, английские

Семпл




Общее
Уникальный идентификатор : 241959634850997487693517060702301891144 (0xB607BB0935430144BDED020D9918AA48)
Полное имя : D:Mои раздачиBratjya.Njyuton.1998.BDRip.(720p)-MediaClub.mkv
Формат : Matroska
Версия формата : Version 2
Размер файла : 7,09 Гбайт
Продолжительность : 2 ч. 2 м.
Общий поток : 8281 Кбит/сек
Название фильма : -=MediaClub-kaspr=-
Дата кодирования : UTC 2013-07-24 15:46:51
Программа кодирования : mkvmerge v5.7.0 ('The Whirlwind') built on Aug 7 2012 14:11:40
Библиотека кодирования : libebml v1.2.3 + libmatroska v1.3.0

Видео
Идентификатор : 1
Формат : AVC
Формат/Информация : Advanced Video Codec
Профиль формата : High@L4.1
Параметр CABAC формата : Да
Параметр ReFrames формата : 8 кадров
Идентификатор кодека : V_MPEG4/ISO/AVC
Продолжительность : 2 ч. 2 м.
Битрейт : 7000 Кбит/сек
Ширина : 1280 пикселей
Высота : 544 пикселя
Соотношение сторон : 2,35:1
Режим частоты кадров : Постоянный
Частота кадров : 23,976 кадра/сек
Цветовое пространство : YUV
Субдискретизация насыщенности : 4:2:0
Битовая глубина : 8 бит
Тип развёртки : Прогрессивная
Бит/(Пиксели*Кадры) : 0.419
Размер потока : 5,85 Гбайт (83%)
Заголовок : -=MediaClub-kaspr=-
Библиотека кодирования : x264 core 130 r2273 b3065e6
Настройки программы : cabac=1 / ref=8 / deblock=1:-3:-3 / analyse=0x3:0x133 / me=umh / subme=11 / psy=1 / psy_rd=1.00:0.20 / mixed_ref=1 / me_range=32 / chroma_me=1 / trellis=2 / 8x8dct=1 / cqm=0 / deadzone=21,11 / fast_pskip=0 / chroma_qp_offset=-3 / threads=12 / lookahead_threads=2 / sliced_threads=0 / nr=0 / decimate=0 / interlaced=0 / bluray_compat=0 / constrained_intra=0 / bframes=8 / b_pyramid=2 / b_adapt=2 / b_bias=0 / direct=3 / weightb=1 / open_gop=0 / weightp=2 / keyint=250 / keyint_min=23 / scenecut=40 / intra_refresh=0 / rc=2pass / mbtree=0 / bitrate=7000 / ratetol=1.0 / qcomp=0.60 / qpmin=0 / qpmax=69 / qpstep=4 / cplxblur=20.0 / qblur=0.5 / ip_ratio=1.40 / pb_ratio=1.30 / aq=1:1.00
Default : Да
Forced : Да

Аудио #1
Идентификатор : 2
Формат : AC-3
Формат/Информация : Audio Coding 3
Расширение режима : CM (complete main)
Параметр Endianness формата : Big
Идентификатор кодека : A_AC3
Продолжительность : 2 ч. 2 м.
Вид битрейта : Постоянный
Битрейт : 448 Кбит/сек
Каналы : 6 каналов
Расположение каналов : Front: L C R, Side: L R, LFE
Частота : 48,0 КГц
Битовая глубина : 16 бит
Метод сжатия : С потерями
Размер потока : 393 Мбайт (5%)
Заголовок : ПД (R5)
Язык : Russian
Default : Да
Forced : Да

Аудио #2
Идентификатор : 3
Формат : AC-3
Формат/Информация : Audio Coding 3
Расширение режима : CM (complete main)
Параметр Endianness формата : Big
Идентификатор кодека : A_AC3
Продолжительность : 2 ч. 2 м.
Вид битрейта : Постоянный
Битрейт : 192 Кбит/сек
Каналы : 2 канала
Расположение каналов : Front: L R
Частота : 48,0 КГц
Битовая глубина : 16 бит
Метод сжатия : С потерями
Размер потока : 168 Мбайт (2%)
Заголовок : ПМ (Премьер)
Язык : Russian
Default : Нет
Forced : Нет

Аудио #3
Идентификатор : 4
Формат : AC-3
Формат/Информация : Audio Coding 3
Расширение режима : CM (complete main)
Параметр Endianness формата : Big
Идентификатор кодека : A_AC3
Продолжительность : 2 ч. 2 м.
Вид битрейта : Постоянный
Битрейт : 640 Кбит/сек
Каналы : 6 каналов
Расположение каналов : Front: L C R, Side: L R, LFE
Частота : 48,0 КГц
Битовая глубина : 16 бит
Метод сжатия : С потерями
Размер потока : 561 Мбайт (8%)
Заголовок : Оригинал
Язык : English
Default : Нет
Forced : Нет

Текст #1
Идентификатор : 5
Формат : UTF-8
Идентификатор кодека : S_TEXT/UTF8
Идентификатор кодека/Информация : UTF-8 Plain Text
Язык : Russian
Default : Нет
Forced : Нет

Текст #2
Идентификатор : 6
Формат : UTF-8
Идентификатор кодека : S_TEXT/UTF8
Идентификатор кодека/Информация : UTF-8 Plain Text
Язык : English
Default : Нет
Forced : Нет

Меню
00:00:00.000 : en:Chapter 01
00:10:43.643 : en:Chapter 02
00:21:30.288 : en:Chapter 03
00:30:33.832 : en:Chapter 04
00:38:31.309 : en:Chapter 05
00:49:03.940 : en:Chapter 06
00:59:53.590 : en:Chapter 07
01:10:22.843 : en:Chapter 08
01:19:45.780 : en:Chapter 09
01:31:18.472 : en:Chapter 10
01:39:51.777 : en:Chapter 11
01:50:22.615 : en:Chapter 12


Релиз:
За исходник спасибо: HDClub
загрузка...
Правила, инструкции, FAQ!!!
Торрент  Добавлен [24 июл 2013, 21:33] Скачать торрент
Скачать торрент
[ Размер 18.29 КБ / Просмотров 5 ]

Статус  
 
Размер  7.09 ГБ
Приватный: Нет (DHT включён)
.torrent скачан  0
Как залить торрент? | Как скачать Torrent? | Как смотреть и слушать онлайн?  


     Отправить личное сообщение
   
Страница 1 из 1
Показать сообщения за:  Поле сортировки  
Начать новую тему Ответить на тему

   Похожие торренты   Автор   Ответы   Просмотры   Последнее сообщение 
В этой теме нет новых непрочитанных сообщений. Скачать торрент Проверен Братья / Brothers (2009) BDRip 720p | Лицензия

в форуме 720p | 1080p, Размер: 2.06 ГБ, Здоровье: 100%

Anonymous

0
37|6

49
533

03 ноя 2014, 16:45

Anonymous Перейти к последнему сообщению

В этой теме нет новых непрочитанных сообщений. Скачать торрент Проверен Братья Блум / The Brothers Bloom (2008) BDRip [720p]

в форуме 720p | 1080p, Размер: 7.02 ГБ, Здоровье: 0%

Гость

0
0|0

48
0

31 янв 2015, 14:07

Гость Перейти к последнему сообщению

В этой теме нет новых непрочитанных сообщений. Скачать торрент Пропащие ребята / The Lost Boys (1987) BDRip 720p | P, P2, A

в форуме 720p | 1080p, Размер: 5.12 ГБ, Здоровье: 0%

Anonymous

0
0|0

20
0

13 мар 2014, 14:28

Anonymous Перейти к последнему сообщению

В этой теме нет новых непрочитанных сообщений. Скачать торрент Проверен Backstreet Boys - In A World Like This. Japan Tour 2013 (2014) BDRip 720p

в форуме Концерты (HD-Video), Размер: 7.23 ГБ, Здоровье: 100%

Anonymous

0
4|0

79
1

21 май 2014, 13:30

Anonymous Перейти к последнему сообщению

В этой теме нет новых непрочитанных сообщений. Скачать торрент Проверен The Beach Boys - Live in Concert: 50th Anniversary [2012, Rock, BDRip 720p]

в форуме Концерты (HD-Video), Размер: 4.54 ГБ, Здоровье: 100%

Гость

0
5|2

54
2

03 май 2015, 22:20

Гость Перейти к последнему сообщению



Сейчас этот форум просматривают: нет зарегистрированных пользователей и гости: 3


Вы не можете начинать темы
Вы не можете отвечать на сообщения
Вы не можете редактировать свои сообщения
Вы не можете удалять свои сообщения
Вы не можете добавлять вложения

Перейти:  

!ВНИМАНИЕ!
 Ресурс не предоставляет электронные версии произведений, а занимается лишь коллекционированием и каталогизацией ссылок, присылаемых и публикуемых на форуме нашими читателями. Если вы являетесь правообладателем какого-либо представленного материала и не желаете чтобы ссылка на него находилась в нашем каталоге, свяжитесь с нами и мы незамедлительно удалим её. Файлы для обмена на трекере предоставлены пользователями сайта, и администрация не несёт ответственности за их содержание. Просьба не заливать файлы, защищенные авторскими правами, а также файлы нелегального содержания!