На всех торрентах на трекере установлена скидка на скачивание в размере 100 процентов(а).
 Возможность скачивания торрента НЕ зависит от ограничений при низком ратио, низком аплоаде, требуемом ратио или требуемом аплоаде.


Начать новую тему Ответить на тему
Статистика раздачи
Размер: 9.84 ГБ | Добавлен: 24 июл 2013, 15:01 | Скачали: 0
Сидеров: 0  [0 байт/сек]    Личеров: 0  [0 байт/сек]
Пред. тема | След. тема 

Автор
Сообщение

СообщениеДобавлено: 24 июл 2013, 15:01 

Название: Ночь пугала
Оригинальное название: Night of the Scarecrow
Год выпуска: 1995
Жанр: Ужасы, фантастика
Выпущено: США, Republic Pictures (II), Steve White Entertainment
Режиссер: Джефф Берр

В ролях: Элизабет Барондес, Джон Месе, Стивен Рут, Брюс Гловер, Дирк Блокер, Ховард Суэйн, Гэри Локвуд, Джон Хоукс, Уильям Джозеф Баркер, Мартин Бесвик

О фильме: Дух злого колдуна, казнённого сотню лет назад, вселяется в пугало. Соломенное чучело отправляется на поиски магической книги, с помощью которой можно восстановить тело чародея. А всех представителей рода человеческого, встречающихся на пути, пугало уничтожает. В жестокости и разнообразии ему не откажешь. Кто-то будет распят, кого-то растерзают и утащат под землю мерзкие щупальца, кому-то зашьют рот ростки зловещих растений...

Качество: BDRip 1080р

Продолжительность: 01:25:03

Видео: MPEG-4 AVC, 12.9 Mбит/с, 1920x1080
Аудио 1: русский, 48 kHz, AC3, 2 ch, 192 kbps avg, Сергей Визгунов [Авторский]
Аудио 2: русский, 48 kHz, AC3, 2 ch, 192 kbps avg, Пётр Карцев [Авторский]

Внешние файлы
Аудио: английский, 48 kHz, DTS, 2 ch, 1509 kbps avg, [Оригинал]
Аудио: английский, 48 kHz, DTS, 2 ch, 1509 kbps avg, [Комментарий]





ujju

Не ходите на кукурузные поля !

Добротный ужастик, держащий в напряжении до самого конца, не должен пройти мимо любого ценителя жанра. Множество запоминающихся впечатляющих моментов, доставляющих удовольствие от увиденного! Пугало зашивает рот нитками, расправляется с полицейскими, сеет своё семя внутрь человека и т. д... Незабываемое зрелище.
Вообще, тема пугала — достаточно оригинальна и интересна сама по себе, однако не так часто рассматриваемая в кино. Вот и данный фильм считаю недооценённым и необоснованно отнесённым к банальному трешу, после чего забытого и заброшенного на дальнюю полку, не получившего должной популярности. Несправедливо!
Желающим пощекотать нервы или просто с удовольствием провести полтора часа у экрана — рекомендую !

9 из 10

Кинопоиск
---[Information] [24.07.2013 9:04:06] x264 [info]: frame I:747 Avg QP:18.71 size:139738
---[Information] [24.07.2013 9:04:06] x264 [info]: frame P:26039 Avg QP:19.71 size: 95054
---[Information] [24.07.2013 9:04:06] x264 [info]: frame B:95542 Avg QP:21.74 size: 60907
---[Information] [24.07.2013 9:04:06] x264 [info]: consecutive B-frames: 3.3% 2.7% 5.1% 13.2% 12.2% 43.5% 8.7% 5.5% 5.8%
---[Information] [24.07.2013 9:04:06] x264 [info]: mb I I16..4: 11.4% 78.2% 10.4%
---[Information] [24.07.2013 9:04:06] x264 [info]: mb P I16..4: 5.7% 51.4% 2.6% P16..4: 22.7% 10.4% 3.0% 0.0% 0.0% skip: 4.3%
---[Information] [24.07.2013 9:04:07] x264 [info]: mb B I16..4: 3.5% 18.0% 0.4% B16..8: 35.2% 10.6% 2.0% direct:14.9% skip:15.5% L0:47.7% L1:44.8% BI: 7.5%
---[Information] [24.07.2013 9:04:07] x264 [info]: 8x8 transform intra:83.8% inter:75.1%
---[Information] [24.07.2013 9:04:07] x264 [info]: coded y,uvDC,uvAC intra: 86.4% 80.3% 31.7% inter: 52.2% 51.9% 3.0%
---[Information] [24.07.2013 9:04:07] x264 [info]: i16 v,h,dc,p: 11% 9% 52% 28%
---[Information] [24.07.2013 9:04:07] x264 [info]: i8 v,h,dc,ddl,ddr,vr,hd,vl,hu: 12% 8% 20% 8% 10% 10% 9% 11% 12%
---[Information] [24.07.2013 9:04:07] x264 [info]: i4 v,h,dc,ddl,ddr,vr,hd,vl,hu: 14% 8% 13% 9% 12% 12% 11% 10% 11%
---[Information] [24.07.2013 9:04:07] x264 [info]: i8c dc,h,v,p: 45% 25% 21% 9%
---[Information] [24.07.2013 9:04:07] x264 [info]: Weighted P-Frames: Y:5.8% UV:4.3%
---[Information] [24.07.2013 9:04:07] x264 [info]: ref P L0: 47.7% 10.2% 27.1% 13.4% 1.4% 0.1%
---[Information] [24.07.2013 9:04:07] x264 [info]: ref B L0: 81.1% 15.6% 3.3%
---[Information] [24.07.2013 9:04:07] x264 [info]: ref B L1: 87.6% 12.4%
---[Information] [24.07.2013 9:04:07] x264 [info]: kb/s:13168.92
---[Information] [24.07.2013 9:04:07] encoded 122328 frames, 1.79 fps, 13168.92 kb/s
--[Information] [24.07.2013 9:04:09] Final statistics
---[Information] [24.07.2013 9:04:09] Constant Quality Mode: Quality 20 computed...
---[Information] [24.07.2013 9:04:09] Video Bitrate Obtained (approximate): 13170 kbit/s
--[Information] [24.07.2013 9:04:09] MediaInfo
---[Information] File: E:RipNoch.pugala.1995.x264.BDRipNoch.pugala.1995.x264.BDRip.1080p.mkv
Общее
Полное имя : E:VideoNoch.pugala.1995.x264.BDRip.1080pNoch.pugala.1995.Commentary.eng.dts
Формат : DTS
Формат/Информация : Digital Theater Systems
Размер файла : 918 Мбайт
Продолжительность : 1 ч. 25 м.
Режим общего битрейта : Постоянный
Общий поток : 1509 Кбит/сек

Аудио
Формат : DTS
Формат/Информация : Digital Theater Systems
Режим : 16
Параметр Endianness формата : Big
Продолжительность : 1 ч. 25 м.
Вид битрейта : Постоянный
Битрейт : 1509 Кбит/сек
Каналы : 2 канала
Расположение каналов : Front: L R
Частота : 48,0 КГц
Битовая глубина : 16 бит
Метод сжатия : С потерями
Размер потока : 918 Мбайт (100%)

Общее
Полное имя : E:VideoNoch.pugala.1995.x264.BDRip.1080pNoch.pugala.1995.Original.eng.dts
Формат : DTS
Формат/Информация : Digital Theater Systems
Размер файла : 918 Мбайт
Продолжительность : 1 ч. 25 м.
Режим общего битрейта : Постоянный
Общий поток : 1509 Кбит/сек

Аудио
Формат : DTS
Формат/Информация : Digital Theater Systems
Режим : 16
Параметр Endianness формата : Big
Продолжительность : 1 ч. 25 м.
Вид битрейта : Постоянный
Битрейт : 1509 Кбит/сек
Каналы : 2 канала
Расположение каналов : Front: L R
Частота : 48,0 КГц
Битовая глубина : 16 бит
Метод сжатия : С потерями
Размер потока : 918 Мбайт (100%)

Общее
Уникальный идентификатор : 250990304803300051289758299817161123162 (0xBCD2F970C800DC588C2E36E238E5E55A)
Полное имя : E:VideoNoch.pugala.1995.x264.BDRip.1080pNoch.pugala.1995.x264.BDRip.1080p.mkv
Формат : Matroska
Версия формата : Version 4 / Version 2
Размер файла : 8,05 Гбайт
Продолжительность : 1 ч. 25 м.
Общий поток : 13,6 Мбит/сек
Название фильма : Ночь пугала / Night of the Scarecrow / 1995 / BDRip -- STarankov
Дата кодирования : UTC 2013-07-24 02:40:33
Программа кодирования : mkvmerge v6.3.0 ('You can't stop me!') built on Jun 28 2013 20:09:41
Библиотека кодирования : libebml v1.3.0 + libmatroska v1.4.0

Видео
Идентификатор : 1
Формат : AVC
Формат/Информация : Advanced Video Codec
Профиль формата : High@L4.1
Параметр CABAC формата : Да
Параметр ReFrames формата : 4 кадра
Идентификатор кодека : V_MPEG4/ISO/AVC
Продолжительность : 1 ч. 25 м.
Битрейт : 12,9 Мбит/сек
Ширина : 1920 пикселей
Высота : 1080 пикселей
Соотношение сторон : 16:9
Режим частоты кадров : Постоянный
Частота кадров : 23,976 кадра/сек
Цветовое пространство : YUV
Субдискретизация насыщенности : 4:2:0
Битовая глубина : 8 бит
Тип развёртки : Прогрессивная
Бит/(Пиксели*Кадры) : 0.259
Размер потока : 7,66 Гбайт (95%)
Библиотека кодирования : x264 core 135 r2345 f0c1c53
Настройки программы : cabac=1 / ref=4 / deblock=1:-1:-1 / analyse=0x3:0x113 / me=umh / subme=10 / psy=1 / psy_rd=1.00:0.15 / mixed_ref=1 / me_range=24 / chroma_me=1 / trellis=2 / 8x8dct=1 / cqm=0 / deadzone=21,11 / fast_pskip=0 / chroma_qp_offset=-3 / threads=6 / lookahead_threads=1 / sliced_threads=0 / nr=0 / decimate=1 / interlaced=0 / bluray_compat=0 / constrained_intra=0 / bframes=8 / b_pyramid=2 / b_adapt=2 / b_bias=0 / direct=1 / weightb=1 / open_gop=0 / weightp=2 / keyint=230 / keyint_min=23 / scenecut=40 / intra_refresh=0 / rc_lookahead=40 / rc=crf / mbtree=0 / crf=20.4 / qcomp=0.60 / qpmin=0 / qpmax=69 / qpstep=4 / vbv_maxrate=50000 / vbv_bufsize=62500 / crf_max=0.0 / nal_hrd=none / ip_ratio=1.40 / pb_ratio=1.30 / aq=1:1.00
Язык : English
Default : Да
Forced : Нет

Аудио #1
Идентификатор : 2
Формат : AC-3
Формат/Информация : Audio Coding 3
Расширение режима : CM (complete main)
Параметр Endianness формата : Big
Идентификатор кодека : A_AC3
Продолжительность : 1 ч. 25 м.
Вид битрейта : Постоянный
Битрейт : 192 Кбит/сек
Каналы : 2 канала
Расположение каналов : Front: L R
Частота : 48,0 КГц
Битовая глубина : 16 бит
Метод сжатия : С потерями
Размер потока : 117 Мбайт (1%)
Заголовок : AVO (Сергей Визгунов)
Язык : Russian
Default : Да
Forced : Нет

Аудио #2
Идентификатор : 3
Формат : AC-3
Формат/Информация : Audio Coding 3
Расширение режима : CM (complete main)
Параметр Endianness формата : Big
Идентификатор кодека : A_AC3
Продолжительность : 1 ч. 25 м.
Вид битрейта : Постоянный
Битрейт : 192 Кбит/сек
Каналы : 2 канала
Расположение каналов : Front: L R
Частота : 48,0 КГц
Битовая глубина : 16 бит
Метод сжатия : С потерями
Размер потока : 117 Мбайт (1%)
Заголовок : AVO (Пётр Карцев)
Язык : Russian
Default : Нет
Forced : Нет


загрузка...
Правила, инструкции, FAQ!!!
Торрент  Добавлен [24 июл 2013, 15:01] Скачать торрент
Скачать торрент
[ Размер 25.18 КБ / Просмотров 12 ]

Статус  
 
Размер  9.84 ГБ
Приватный: Нет (DHT включён)
.torrent скачан  0
Как залить торрент? | Как скачать Torrent? | Как смотреть и слушать онлайн?  


     Отправить личное сообщение
   
Страница 1 из 1
Показать сообщения за:  Поле сортировки  
Начать новую тему Ответить на тему

   Похожие торренты   Автор   Ответы   Просмотры   Последнее сообщение 
В этой теме нет новых непрочитанных сообщений. Скачать торрент Проверен Хозяева ночи / We Own the Night (2007) BDRip 1080р | D

в форуме 720p | 1080p, Размер: 9.52 ГБ, Здоровье: 60%

Anonymous

0
14|23

37
22

31 окт 2014, 19:40

Anonymous Перейти к последнему сообщению

В этой теме нет новых непрочитанных сообщений. Скачать торрент Первый рыцарь / First Knight (1995) BDRip 1080р

в форуме 720p | 1080p, Размер: 5.76 ГБ, Здоровье: 100%

Anonymous

0
4|3

46
10

15 мар 2014, 13:36

Anonymous Перейти к последнему сообщению

В этой теме нет новых непрочитанных сообщений. Скачать торрент Проверен (Glam/Hard Rock) Scarecrow - Scarecrow - 1991, MP3 (tracks), 320 kbps

в форуме AOR (Melodic Hard Rock, Arena rock), Размер: 89.65 МБ, Здоровье: 0%

Anonymous

0
0|0

6
0

08 окт 2016, 12:13

Anonymous Перейти к последнему сообщению

В этой теме нет новых непрочитанных сообщений. Скачать торрент Проверен Ночь на Земле / Night on Earth (1991) BDRip

в форуме Драмы, Мелодрамы, Размер: 2.18 ГБ, Здоровье: 100%

Гость

0
55|31

73
72

19 авг 2015, 23:24

Гость Перейти к последнему сообщению

В этой теме нет новых непрочитанных сообщений. Скачать торрент Ночь страха / Fright Night (2011) BDRip 720p | D

в форуме 720p | 1080p, Размер: 4.37 ГБ, Здоровье: 100%

Anonymous

0
6|0

329
10

21 фев 2014, 16:11

Anonymous Перейти к последнему сообщению



Сейчас этот форум просматривают: нет зарегистрированных пользователей и гости: 3


Вы не можете начинать темы
Вы не можете отвечать на сообщения
Вы не можете редактировать свои сообщения
Вы не можете удалять свои сообщения
Вы не можете добавлять вложения

Перейти:  

!ВНИМАНИЕ!
 Ресурс не предоставляет электронные версии произведений, а занимается лишь коллекционированием и каталогизацией ссылок, присылаемых и публикуемых на форуме нашими читателями. Если вы являетесь правообладателем какого-либо представленного материала и не желаете чтобы ссылка на него находилась в нашем каталоге, свяжитесь с нами и мы незамедлительно удалим её. Файлы для обмена на трекере предоставлены пользователями сайта, и администрация не несёт ответственности за их содержание. Просьба не заливать файлы, защищенные авторскими правами, а также файлы нелегального содержания!