На всех торрентах на трекере установлена скидка на скачивание в размере 100 процентов(а).
 Возможность скачивания торрента НЕ зависит от ограничений при низком ратио, низком аплоаде, требуемом ратио или требуемом аплоаде.


Начать новую тему Ответить на тему
Статистика раздачи
Размер: 10.32 ГБ | Добавлен: 23 июл 2013, 21:41 | Скачали: 0
Сидеров: 0  [0 байт/сек]    Личеров: 0  [0 байт/сек]
Пред. тема | След. тема 

Автор
Сообщение

СообщениеДобавлено: 23 июл 2013, 21:41 

Название: Ярость
Оригинальное название: The Fury
Год выхода: 1978
Жанр: Ужасы, фантастика, триллер, драма
Режиссер: Брайан Де Пальма

В ролях: Кирк Дуглас, Джон Кассаветис, Кэрри Снодгресс, Чарльз Дёрнинг, Эми Ирвинг, Фиона Льюис, Эндрю Стивенс, Кэрол Ив Россен, Рутаня Олда, Джойс Истон

О фильме:
Бывший агент ЦРУ Питер Сандза, спокойно отдыхающий со своим сыном Робином на Ближнем Востоке, переживает шок, когда мальчика неожиданно похищают. Чтобы выйти на его след, Питер обращается за помощью к девушке-экстрасенсу Джиллиан Беллевер. То, что им удается узнать, поначалу никак не укладывается у Питера в голове…

Выпущено: США / 20th Century Fox Film Corporation, Frank Yablans Presentations
Продолжительность: 01:57:55
Перевод: Профессиональный многоголосый, авторский

Кодек: MPEG-4 AVC
Качество: BDRip 1080p
Видео: 1920x1040 23,976 fps, 10986 kbps
Звук:
Russian: AC3, 448 Kbps (6 ch) Профессиональный многоголосый
Russian: AC3, 448 Kbps (6 ch) Авторский (Михалев)
Russian: AC3, 192 Kbps (2 ch) Авторский (Гаврилов)
English: AC3, 448 Kbps (6 ch) Original
Субтитры: Russian, English
Семпл
Общее
Уникальный идентификатор : 171089782717590168755360076796839952593 (0x80B6B18DE60CA4C8A8923B997A6D80D1)
Полное имя : The Fury.1978.х264.BDRip.1080р.mkv
Формат : Matroska
Версия формата : Version 4 / Version 2
Размер файла : 10,3 Гбайт
Продолжительность : 1 ч. 57 м.
Общий поток : 12,5 Мбит/сек
Название фильма : ☭WIDDER☭
Дата кодирования : UTC 2013-07-23 09:26:53
Программа кодирования : mkvmerge v6.3.0 ('You can't stop me!') built on Jun 28 2013 20:09:41
Библиотека кодирования : libebml v1.3.0 + libmatroska v1.4.0

Видео
Идентификатор : 1
Формат : AVC
Формат/Информация : Advanced Video Codec
Профиль формата : High@L4.1
Параметр CABAC формата : Да
Параметр ReFrames формата : 4 кадра
Идентификатор кодека : V_MPEG4/ISO/AVC
Битрейт : 11,0 Мбит/сек
Ширина : 1920 пикселей
Высота : 1040 пикселей
Соотношение сторон : 1,85:1
Режим частоты кадров : Переменный
Частота кадров в оригинале : 23,976 кадра/сек
Цветовое пространство : YUV
Субдискретизация насыщенности : 4:2:0
Битовая глубина : 8 бит
Тип развёртки : Прогрессивная
Бит/(Пиксели*Кадры) : 0.229
Заголовок : Ярость / The Fury (1978)
Библиотека кодирования : x264 core 135 r2345 f0c1c53
Настройки программы : cabac=1 / ref=4 / deblock=1:-3:-3 / analyse=0x3:0x133 / me=umh / subme=11 / psy=1 / psy_rd=1.00:0.00 / mixed_ref=1 / me_range=32 / chroma_me=1 / trellis=2 / 8x8dct=1 / cqm=0 / deadzone=21,11 / fast_pskip=0 / chroma_qp_offset=-2 / threads=12 / lookahead_threads=1 / sliced_threads=0 / nr=0 / decimate=1 / interlaced=0 / bluray_compat=0 / constrained_intra=0 / bframes=6 / b_pyramid=2 / b_adapt=2 / b_bias=0 / direct=3 / weightb=1 / open_gop=0 / weightp=2 / keyint=240 / keyint_min=23 / scenecut=40 / intra_refresh=0 / rc_lookahead=60 / rc=2pass / mbtree=0 / bitrate=10986 / ratetol=1.0 / qcomp=0.60 / qpmin=0 / qpmax=69 / qpstep=4 / cplxblur=20.0 / qblur=0.5 / vbv_maxrate=50000 / vbv_bufsize=60000 / nal_hrd=none / ip_ratio=1.40 / pb_ratio=1.30 / aq=2:0.80
Язык : English
Default : Да
Forced : Нет

Аудио #1
Идентификатор : 2
Формат : AC-3
Формат/Информация : Audio Coding 3
Расширение режима : CM (complete main)
Параметр Endianness формата : Big
Идентификатор кодека : A_AC3
Продолжительность : 1 ч. 57 м.
Вид битрейта : Постоянный
Битрейт : 448 Кбит/сек
Каналы : 6 каналов
Расположение каналов : Front: L C R, Side: L R, LFE
Частота : 48,0 КГц
Битовая глубина : 16 бит
Метод сжатия : С потерями
Размер потока : 378 Мбайт (4%)
Заголовок : AC3, 448 Kbps (6 ch) Профессиональный многоголосый
Язык : Russian
Default : Да
Forced : Нет

Аудио #2
Идентификатор : 3
Формат : AC-3
Формат/Информация : Audio Coding 3
Расширение режима : CM (complete main)
Параметр Endianness формата : Big
Идентификатор кодека : A_AC3
Продолжительность : 1 ч. 57 м.
Вид битрейта : Постоянный
Битрейт : 448 Кбит/сек
Каналы : 4 канала
Расположение каналов : Front: L C R, Side: C
Частота : 48,0 КГц
Битовая глубина : 16 бит
Метод сжатия : С потерями
Размер потока : 378 Мбайт (4%)
Заголовок : AC3, 448 Kbps (6 ch) Авторский (Михалев)
Язык : Russian
Default : Нет
Forced : Нет

Аудио #3
Идентификатор : 4
Формат : AC-3
Формат/Информация : Audio Coding 3
Расширение режима : CM (complete main)
Параметр Endianness формата : Big
Идентификатор кодека : A_AC3
Продолжительность : 1 ч. 57 м.
Вид битрейта : Постоянный
Битрейт : 192 Кбит/сек
Каналы : 2 канала
Расположение каналов : Front: L R
Частота : 48,0 КГц
Битовая глубина : 16 бит
Метод сжатия : С потерями
Размер потока : 162 Мбайт (2%)
Заголовок : AC3, 192 Kbps (2 ch) Авторский (Гаврилов)
Язык : Russian
Default : Нет
Forced : Нет

Аудио #4
Идентификатор : 5
Формат : AC-3
Формат/Информация : Audio Coding 3
Расширение режима : CM (complete main)
Параметр Endianness формата : Big
Идентификатор кодека : A_AC3
Продолжительность : 1 ч. 57 м.
Вид битрейта : Постоянный
Битрейт : 448 Кбит/сек
Каналы : 4 канала
Расположение каналов : Front: L C R, Side: C
Частота : 48,0 КГц
Битовая глубина : 16 бит
Метод сжатия : С потерями
Размер потока : 378 Мбайт (4%)
Заголовок : AC3, 448 Kbps (6 ch) Original
Язык : English
Default : Нет
Forced : Нет

Текст #1
Идентификатор : 6
Формат : PGS
Режим смешивания : zlib
Идентификатор кодека : S_HDMV/PGS
Идентификатор кодека/Информация : The same subtitle format used on BDs/HD-DVDs
Язык : Russian
Default : Нет
Forced : Нет

Текст #2
Идентификатор : 7
Формат : PGS
Режим смешивания : zlib
Идентификатор кодека : S_HDMV/PGS
Идентификатор кодека/Информация : The same subtitle format used on BDs/HD-DVDs
Язык : English
Default : Нет
Forced : Нет

Меню
00:00:00.000 : :Chapter 01
00:08:56.160 : :Chapter 02
00:22:08.493 : :Chapter 03
00:35:00.931 : :Chapter 04
00:41:22.813 : :Chapter 05
00:59:51.588 : :Chapter 06
01:07:43.934 : :Chapter 07
01:21:51.573 : :Chapter 08
01:29:53.679 : :Chapter 09
01:36:54.600 : :Chapter 10
01:49:59.676 : :Chapter 11
01:55:10.320 : :Chapter 12
01:57:53.524 : :Chapter 13
____________________________________________
x264 [info]: frame I:913 Avg QP:21.34 size:163483
x264 [info]: frame P:32299 Avg QP:22.53 size: 94638
x264 [info]: frame B:136388 Avg QP:23.56 size: 47072
x264 [info]: consecutive B-frames: 0.9% 0.9% 5.7% 6.2% 14.6% 66.9% 4.8%




Релиз от:
загрузка...
Правила, инструкции, FAQ!!!
Торрент  Добавлен [23 июл 2013, 21:41] Скачать торрент
Скачать торрент
[ Размер 52.01 КБ / Просмотров 6 ]

Статус  
 
Размер  10.32 ГБ
Приватный: Нет (DHT включён)
.torrent скачан  0
Как залить торрент? | Как скачать Torrent? | Как смотреть и слушать онлайн?  


     Отправить личное сообщение
   
Страница 1 из 1
Показать сообщения за:  Поле сортировки  
Начать новую тему Ответить на тему

   Похожие торренты   Автор   Ответы   Просмотры   Последнее сообщение 
В этой теме нет новых непрочитанных сообщений. Скачать торрент Проверен Ярость / Fury (2014) BDRemux [1080p]

в форуме BD-Remux, Размер: 26.95 ГБ, Здоровье: ???%

Гость

0
0|3

282
1

17 янв 2015, 00:52

Гость Перейти к последнему сообщению

В этой теме нет новых непрочитанных сообщений. Скачать торрент Проверен Ярость / Fury (2014) WEB-DL [H.264/1080p-LQ] [Line]

в форуме 720p | 1080p, Размер: 4.38 ГБ, Здоровье: 100%

Гость

0
2022|428

121
1

30 дек 2014, 23:47

Гость Перейти к последнему сообщению

В этой теме нет новых непрочитанных сообщений. Скачать торрент Проверен Ярость / Fury (2014) WEB-DL 720p | Чистый звук

в форуме 720p | 1080p, Размер: 4.81 ГБ, Здоровье: 100%

Гость

0
2629|1850

261
4374

30 дек 2014, 21:47

Гость Перейти к последнему сообщению

В этой теме нет новых непрочитанных сообщений. Скачать торрент Проверен Слепая ярость / Blind Fury (1989) HDTVRip | P

в форуме Боевики, Размер: 1.45 ГБ, Здоровье: 100%

Anonymous

0
32|1

120
23

28 авг 2015, 23:33

Anonymous Перейти к последнему сообщению

В этой теме нет новых непрочитанных сообщений. Скачать торрент Проверен Ярость / Fury (2014) WEB-DLRip | Чистый звук

в форуме Боевики, Размер: 1.45 ГБ, Здоровье: 0%

Гость

0
0|0

327
0

30 дек 2014, 21:52

Гость Перейти к последнему сообщению



Сейчас этот форум просматривают: нет зарегистрированных пользователей и гости: 2


Вы не можете начинать темы
Вы не можете отвечать на сообщения
Вы не можете редактировать свои сообщения
Вы не можете удалять свои сообщения
Вы не можете добавлять вложения

Перейти:  

!ВНИМАНИЕ!
 Ресурс не предоставляет электронные версии произведений, а занимается лишь коллекционированием и каталогизацией ссылок, присылаемых и публикуемых на форуме нашими читателями. Если вы являетесь правообладателем какого-либо представленного материала и не желаете чтобы ссылка на него находилась в нашем каталоге, свяжитесь с нами и мы незамедлительно удалим её. Файлы для обмена на трекере предоставлены пользователями сайта, и администрация не несёт ответственности за их содержание. Просьба не заливать файлы, защищенные авторскими правами, а также файлы нелегального содержания!