На всех торрентах на трекере установлена скидка на скачивание в размере 100 процентов(а).
 Возможность скачивания торрента НЕ зависит от ограничений при низком ратио, низком аплоаде, требуемом ратио или требуемом аплоаде.


Начать новую тему Ответить на тему
Статистика раздачи
Размер: 11.82 ГБ | Добавлен: 23 июл 2013, 14:35 | Скачали: 0
Сидеров: 0  [0 байт/сек]    Личеров: 0  [0 байт/сек]
Пред. тема | След. тема 

Автор
Сообщение

СообщениеДобавлено: 23 июл 2013, 14:35 

Название: Беспредел
Оригинальное название: Autoreiji / Outrage
Год выхода: 2010
Жанр: Драма, криминал
Режиссер: Такеши Китано
В ролях: Такеши Китано, Киппеи Шина, Рё Касэ, Томокадзу Миура, Дзюн Кунимура, Тэтта Сугимото, Такаши Цукамото, Юка Итая, Хидео Накано, Рэндзи Исибаси, Фумиё Кохината, Соичиро Китамура, Кента Элизабет III, Токио Эмото, Акико Кобаяши, Масаки Миура, Кенджи Моринага, Джанко Накамура, Юничи Нитта, Кенджи Охара, Тадаши Саката, Эйхи Шиина, Макита Спортс, Юя Такаяма, Ёкио Танахаши, Тсутому Тсуджи, Томо Учино, Наоко Ватанабе

О фильме:
В безжалостной борьбе за власть несколько кланов якудза оспаривают расположение Крестного отца. Главари поднимаются по иерархической лестнице в организации, не пренебрегая заговорами и лживыми клятвами верности. Опытный якудза Отомо наблюдает за развитием карьеры своих товарищей: оставив позади замысловатые татуировки и отрубленные пальцы, они штурмуют мир финансов. В мире коррупции, где царят предательство и месть, ни на минуту не прекращается борьба за достижение вершины или просто за выживание. Это — мир, где героев не существует…

Страна: Япония
Студия: Bandai Visual Company, Office Kitano, Omnibus Japan
Продолжительность: 01:49:43
Перевод: Профессиональный многоголосый, авторский одноголосый Ю.Сербин

Сохранены оригинальные чаптеры как на Blu-ray.
Внимание! В переводе Ю. Сербина присутствует ненормативная лексика.
За дорожку с переводом Ю.Сербина большое спасибо AvryV! Перевод стал доступен благодаря форуму e180 и его пользователям: Foots (AnryV), carnivale, shurik36, zeleniy, Roman Lee, Tio, Партизан, Некрасов.
Русские субтитры - MiTrIcHoJiSaN.
Файл
Кодек: MPEG-4 AVC
Качество: BDRip 720p от CHD
Видео: 1920x818 at 23.976 fps, x264@L4.1, crf, ~11162 kbps avg
Звук:
Аудио#1: Russian: 48 kHz, DTS, 3/2 (L,C,R,l,r) + LFE ch, ~1536.00 kbps avg |Многоголосый закадровый, Blu-ray|
Аудио#2: Russian: 48 kHz/16-bit, DTS, 3/2 (L,C,R,l,r) + LFE ch, ~1536.00 kbps avg |Одноголосый закадровый, Ю.Сербин|
Аудио#3: Japanese: 48 kHz/16-bit, DTS, 3/2 (L,C,R,l,r) + LFE ch, ~1536.00 kbps avg
Субтитры: Русские, английские
- Первый фильм Такеши Китано, снятый в формате 2,35:1.
- После серии нетрадиционных, коммерчески непривлекательных проектов Такеши Китано взялся за этот фильм, возвращаясь к жанру, который принес ему наибольший успех.
- Первый гангстерский фильм Такеши Китано спустя 10 лет после выхода «Брата якудзы» (2000).
- По совету продюсеров Такеши Китано не взял в фильм ни одного актера, который бы снимался в его предыдущих проектах, кроме себя самого.
- Лимузин Мурасе — это Nissan Fuga, флагманская модель компании на японском внутреннем рынке. Варианты Fuga продаются в других странах мира как Infiniti M.

Каннский кинофестиваль, 2010 год

Номинации (1):
Золотая пальмовая ветвь

Общее
Уникальный идентификатор : 244279219923507056195464134676679714738 (0xB7C67768E37E5435A8DDAEE9CA9B67B2)
Полное имя : Autoreiji.2010.1080p.BluRay.DTS.Rus.Jap.HDCLUB.mkv
Формат : Matroska
Версия формата : Version 2
Размер файла : 11,8 Гбайт
Продолжительность : 1 ч. 49 м.
Общий поток : 15,4 Мбит/сек
Название фильма : Outrage (2010) - Release for HDCLUB
Дата кодирования : UTC 2013-07-22 17:51:24
Программа кодирования : mkvmerge v2.9.5 ('Tu es le seul') built on Jun 7 2009 11:07:07
Библиотека кодирования : libebml v0.7.7 + libmatroska v0.8.1
Attachment : Yes / Yes / Yes

Видео
Идентификатор : 1
Формат : AVC
Формат/Информация : Advanced Video Codec
Профиль формата : High@L4.1
Параметр CABAC формата : Да
Параметр ReFrames формата : 5 кадров
Идентификатор кодека : V_MPEG4/ISO/AVC
Продолжительность : 1 ч. 49 м.
Битрейт : 10,9 Мбит/сек
Ширина : 1920 пикселей
Высота : 818 пикселей
Соотношение сторон : 2,35:1
Режим частоты кадров : Постоянный
Частота кадров : 23,976 кадра/сек
Цветовое пространство : YUV
Субдискретизация насыщенности : 4:2:0
Битовая глубина : 8 бит
Тип развёртки : Прогрессивная
Бит/(Пиксели*Кадры) : 0.289
Размер потока : 8,11 Гбайт (69%)
Заголовок : Release for HDCLUB
Библиотека кодирования : x264 core 110 r1804 e89c4cf
Настройки программы : cabac=1 / ref=5 / deblock=1:-3:-3 / analyse=0x3:0x113 / me=umh / subme=10 / psy=1 / psy_rd=1.05:0.10 / mixed_ref=1 / me_range=32 / chroma_me=1 / trellis=2 / 8x8dct=1 / cqm=0 / deadzone=21,11 / fast_pskip=0 / chroma_qp_offset=-2 / threads=12 / sliced_threads=0 / nr=0 / decimate=1 / interlaced=0 / constrained_intra=0 / bframes=6 / b_pyramid=2 / b_adapt=2 / b_bias=0 / direct=3 / weightb=1 / open_gop=0 / weightp=2 / keyint=250 / keyint_min=23 / scenecut=40 / intra_refresh=0 / rc_lookahead=40 / rc=2pass / mbtree=0 / bitrate=10896 / ratetol=1.0 / qcomp=0.70 / qpmin=0 / qpmax=51 / qpstep=4 / cplxblur=20.0 / qblur=0.5 / vbv_maxrate=45000 / vbv_bufsize=40000 / ip_ratio=1.40 / pb_ratio=1.30 / aq=1:0.90 / nal_hrd=none
Язык : Japanese
Default : Да
Forced : Нет

Аудио #1
Идентификатор : 2
Формат : DTS
Формат/Информация : Digital Theater Systems
Режим : 16
Параметр Endianness формата : Big
Идентификатор кодека : A_DTS
Продолжительность : 1 ч. 49 м.
Вид битрейта : Постоянный
Битрейт : 1510 Кбит/сек
Каналы : 6 каналов
Расположение каналов : Front: L C R, Side: L R, LFE
Частота : 48,0 КГц
Битовая глубина : 24 бит
Метод сжатия : С потерями
Размер потока : 1,16 Гбайт (10%)
Заголовок : DTS 5.1 1536 kbps [Многоголосый, Blu-Ray]
Язык : Russian
Default : Да
Forced : Нет

Аудио #2
Идентификатор : 3
Формат : DTS
Формат/Информация : Digital Theater Systems
Режим : 16
Параметр Endianness формата : Big
Идентификатор кодека : A_DTS
Продолжительность : 1 ч. 49 м.
Вид битрейта : Постоянный
Битрейт : 1509 Кбит/сек
Каналы : 6 каналов
Расположение каналов : Front: L C R, Side: L R, LFE
Частота : 48,0 КГц
Битовая глубина : 16 бит
Метод сжатия : С потерями
Размер потока : 1,16 Гбайт (10%)
Заголовок : DTS 5.1 1536 kbps [Oдноголосый, Ю.Сербин]
Язык : Russian
Default : Нет
Forced : Нет

Аудио #3
Идентификатор : 4
Формат : DTS
Формат/Информация : Digital Theater Systems
Режим : 16
Параметр Endianness формата : Big
Идентификатор кодека : A_DTS
Продолжительность : 1 ч. 49 м.
Вид битрейта : Постоянный
Битрейт : 1509 Кбит/сек
Каналы : 6 каналов
Расположение каналов : Front: L C R, Side: L R, LFE
Частота : 48,0 КГц
Битовая глубина : 16 бит
Метод сжатия : С потерями
Размер потока : 1,16 Гбайт (10%)
Заголовок : DTS 5.1 1536 kbps [Oригинал]
Язык : Japanese
Default : Нет
Forced : Нет

Текст #1
Идентификатор : 5
Формат : UTF-8
Идентификатор кодека : S_TEXT/UTF8
Идентификатор кодека/Информация : UTF-8 Plain Text
Язык : Russian
Default : Нет
Forced : Нет

Текст #2
Идентификатор : 6
Формат : ASS
Идентификатор кодека : S_TEXT/ASS
Идентификатор кодека/Информация : Advanced Sub Station Alpha
Метод сжатия : Без потерь
Язык : English
Default : Нет
Forced : Нет

Меню
00:00:00.000 : :0:00:00.000
00:09:07.797 : :0:09:07.797
00:23:29.741 : :0:23:29.741
00:32:28.905 : :0:32:28.905
00:44:46.225 : :0:44:46.225
00:51:16.907 : :0:51:16.907
01:06:02.416 : :1:06:02.416
01:14:01.895 : :1:14:01.895
01:20:56.685 : :1:20:56.685
01:29:52.845 : :1:29:52.845
01:39:46.814 : :1:39:46.814
01:45:15.851 : :1:45:15.851
01:49:13.547 : :1:49:13.547





Релиз от:
загрузка...
Правила, инструкции, FAQ!!!
Торрент  Добавлен [23 июл 2013, 14:35] Скачать торрент
Скачать торрент
[ Размер 59.64 КБ / Просмотров 7 ]

Статус  
 
Размер  11.82 ГБ
Приватный: Нет (DHT включён)
.torrent скачан  0
Как залить торрент? | Как скачать Torrent? | Как смотреть и слушать онлайн?  


     Отправить личное сообщение
   
Страница 1 из 1
Показать сообщения за:  Поле сортировки  
Начать новую тему Ответить на тему

   Похожие торренты   Автор   Ответы   Просмотры   Последнее сообщение 
В этой теме нет новых непрочитанных сообщений. Скачать торрент Родительский беспредел / Parental Guidance (2012) BDRip | Лицензия

в форуме Детское, Семейное кино, Размер: 2.18 ГБ, Здоровье: 100%

Anonymous

0
68|6

63
15

23 янв 2014, 16:09

Anonymous Перейти к последнему сообщению

В этой теме нет новых непрочитанных сообщений. Скачать торрент Кандагар (2010) BDRip 1080p

в форуме 720p | 1080p, Размер: 4.36 ГБ, Здоровье: 0%

Anonymous

0
0|0

22
0

17 янв 2014, 15:40

Anonymous Перейти к последнему сообщению

В этой теме нет новых непрочитанных сообщений. Скачать торрент Проверен 14 клинков / Gam yee wai / 14 Blades (2010) BDRip 1080p | P1

в форуме 720p | 1080p, Размер: 11.82 ГБ, Здоровье: 100%

Гость

0
18|5

116
7

08 апр 2016, 19:29

Гость Перейти к последнему сообщению

В этой теме нет новых непрочитанных сообщений. Скачать торрент О чём говорят мужчины (2010) BDRip 1080p

в форуме 720p | 1080p, Размер: 4.37 ГБ, Здоровье: 0%

Anonymous

0
0|0

100
0

06 янв 2014, 23:14

Anonymous Перейти к последнему сообщению

В этой теме нет новых непрочитанных сообщений. Скачать торрент Проверен Центурион / Centurion (2010) BDRip 1080p | D, P, A

в форуме 720p | 1080p, Размер: 15.73 ГБ, Здоровье: 100%

Anonymous

0
22|18

46
74

04 май 2015, 20:17

Anonymous Перейти к последнему сообщению



Сейчас этот форум просматривают: нет зарегистрированных пользователей и гости: 4


Вы не можете начинать темы
Вы не можете отвечать на сообщения
Вы не можете редактировать свои сообщения
Вы не можете удалять свои сообщения
Вы не можете добавлять вложения

Перейти:  

!ВНИМАНИЕ!
 Ресурс не предоставляет электронные версии произведений, а занимается лишь коллекционированием и каталогизацией ссылок, присылаемых и публикуемых на форуме нашими читателями. Если вы являетесь правообладателем какого-либо представленного материала и не желаете чтобы ссылка на него находилась в нашем каталоге, свяжитесь с нами и мы незамедлительно удалим её. Файлы для обмена на трекере предоставлены пользователями сайта, и администрация не несёт ответственности за их содержание. Просьба не заливать файлы, защищенные авторскими правами, а также файлы нелегального содержания!