На всех торрентах на трекере установлена скидка на скачивание в размере 100 процентов(а).
 Возможность скачивания торрента НЕ зависит от ограничений при низком ратио, низком аплоаде, требуемом ратио или требуемом аплоаде.


Начать новую тему Ответить на тему
Статистика раздачи
Размер: 2.18 ГБ | Добавлен: 23 июл 2013, 13:47 | Скачали: 0
Сидеров: 0  [0 байт/сек]    Личеров: 0  [0 байт/сек]
Пред. тема | След. тема 

Автор
Сообщение

СообщениеДобавлено: 23 июл 2013, 13:47 

Год выпуска: 2009
Производство: США, Германия / Paramount Pictures, Bad Robot, Mavrocine, Spyglass Entertainment
Жанр: Фантастика, боевик, приключения
Продолжительность: 02:06:50
Перевод: Профессиональный (полное дублирование)
Субтитры: Русские (полные + форс.), английские


Режиссер: Джей Джей Абрамс

В ролях: Крис Пайн, Закари Куинто, Леонард Нимой, Эрик Бана, Брюс Гринвуд, Карл Урбан, Зои Салдана, Саймон Пегг, Джон Чо, Антон Ельчин

О фильме: Судьба галактики в руках непримиримых соперников, принадлежащих к совершенно разным мирам. Один из них — Джеймс Т. Кирк, хулиган из Айовы, прирожденный лидер, и искатель приключений. Второй, Спок, вырос на планете Вулкан и стал изгоем по причине своего получеловеческого происхождения.
Кирк и Спок являются полными противоположностями; стремясь познать свою истинную сущность и понять, что они могут дать миру, молодые люди вскоре становятся непримиримыми соперниками. Один из них движим страстями, другой руководствуется холодной логикой.



Бюджет: $150 000 000





Качество: BDRip-AVC [Star Trek 2009 Blu-ray CEE 1080p AVC DD5.1]
Формат: MKV
Видео: H.264, 1032x430 (2,40:1), 23,976 fps, 1693 Кbps, 0.159 bit/pixel
Аудио#1: 48 kHz, AC3 Dolby Digital, 3/2 (L,C,R,l,r) + LFE ch, 384.00 kbps | RUS
Аудио#2: 48 kHz, AC3 Dolby Digital, 3/2 (L,C,R,l,r) + LFE ch, 384.00 kbps | ENG


Автор рипа:


Общее
Уникальный идентификатор : 182447278445708929603385172817926541157 (0x89421153AD3A50BAB03F702354D1CF65)
Полное имя : Zvjozdnyj.Put'.2009.D.BDRip.x264.potroks.mkv
Формат : Matroska
Версия формата : Version 4 / Version 2
Размер файла : 2,18 Гбайт
Продолжительность : 2 ч. 6 м.
Общий поток : 2463 Кбит/сек
Название фильма : -=POTROKS=-
Дата кодирования : UTC 2013-05-14 08:18:48
Программа кодирования : mkvmerge v5.9.0 ('On The Loose') built on Dec 15 2012 16:39:58
Библиотека кодирования : libebml v1.3.0 + libmatroska v1.4.0

Видео
Идентификатор : 1
Формат : AVC
Формат/Информация : Advanced Video Codec
Профиль формата : High@L4.1
Параметр CABAC формата : Да
Параметр ReFrames формата : 9 кадров
Идентификатор кодека : V_MPEG4/ISO/AVC
Продолжительность : 2 ч. 6 м.
Битрейт : 1693 Кбит/сек
Ширина : 1032 пикселя
Высота : 430 пикселей
Соотношение сторон : 2,40:1
Режим частоты кадров : Постоянный
Частота кадров : 23,976 кадра/сек
Цветовое пространство : YUV
Субдискретизация насыщенности : 4:2:0
Битовая глубина : 8 бит
Тип развёртки : Прогрессивная
Бит/(Пиксели*Кадры) : 0.159
Размер потока : 1,46 Гбайт (67%)
Заголовок : Star Trek
Библиотека кодирования : x264 core 128 r2216M 198a7ea
Настройки программы : cabac=1 / ref=10 / deblock=1:-3:-3 / analyse=0x3:0x133 / me=umh / subme=9 / psy=1 / psy_rd=0.98:0.01 / mixed_ref=1 / me_range=32 / chroma_me=1 / trellis=2 / 8x8dct=1 / cqm=0 / deadzone=21,11 / fast_pskip=0 / chroma_qp_offset=-3 / threads=6 / lookahead_threads=1 / sliced_threads=0 / nr=0 / decimate=1 / interlaced=0 / bluray_compat=0 / constrained_intra=0 / bframes=11 / b_pyramid=1 / b_adapt=2 / b_bias=0 / direct=3 / weightb=1 / open_gop=0 / weightp=2 / keyint=240 / keyint_min=23 / scenecut=40 / intra_refresh=0 / rc_lookahead=150 / rc=2pass / mbtree=1 / bitrate=1693 / ratetol=1.0 / qcomp=0.70 / qpmin=0 / qpmax=69 / qpstep=4 / cplxblur=20.0 / qblur=0.5 / vbv_maxrate=20000 / vbv_bufsize=20000 / nal_hrd=none / ip_ratio=1.35 / aq=1:0.85
Язык : English
Default : Да
Forced : Нет

Аудио #1
Идентификатор : 2
Формат : AC-3
Формат/Информация : Audio Coding 3
Расширение режима : CM (complete main)
Параметр Endianness формата : Big
Идентификатор кодека : A_AC3
Продолжительность : 2 ч. 6 м.
Вид битрейта : Постоянный
Битрейт : 384 Кбит/сек
Каналы : 6 каналов
Расположение каналов : Front: L C R, Side: L R, LFE
Частота : 48,0 КГц
Битовая глубина : 16 бит
Метод сжатия : С потерями
Задержка видео : 59 мс.
Размер потока : 348 Мбайт (16%)
Заголовок : Dub | DD 5.1 @ 384 kbps - Blu-ray CEE
Язык : Russian
Default : Да
Forced : Да

Аудио #2
Идентификатор : 3
Формат : AC-3
Формат/Информация : Audio Coding 3
Расширение режима : CM (complete main)
Параметр Endianness формата : Big
Идентификатор кодека : A_AC3
Продолжительность : 2 ч. 6 м.
Вид битрейта : Постоянный
Битрейт : 384 Кбит/сек
Каналы : 6 каналов
Расположение каналов : Front: L C R, Side: L R, LFE
Частота : 48,0 КГц
Битовая глубина : 16 бит
Метод сжатия : С потерями
Задержка видео : 69 мс.
Размер потока : 348 Мбайт (16%)
Заголовок : Original | DD 5.1 @ 384 kbps
Язык : English
Default : Нет
Forced : Нет

Текст #1
Идентификатор : 4
Формат : UTF-8
Идентификатор кодека : S_TEXT/UTF8
Идентификатор кодека/Информация : UTF-8 Plain Text
Язык : English
Default : Нет
Forced : Нет

Текст #2
Идентификатор : 5
Формат : UTF-8
Идентификатор кодека : S_TEXT/UTF8
Идентификатор кодека/Информация : UTF-8 Plain Text
Заголовок : Forced
Язык : Russian
Default : Да
Forced : Да

Текст #3
Идентификатор : 6
Формат : UTF-8
Идентификатор кодека : S_TEXT/UTF8
Идентификатор кодека/Информация : UTF-8 Plain Text
Язык : Russian
Default : Нет
Forced : Нет

загрузка...
Правила, инструкции, FAQ!!!
Торрент  Добавлен [23 июл 2013, 13:47] Скачать торрент
Скачать торрент
[ Размер 11.43 КБ / Просмотров 13 ]

Статус  
 
Размер  2.18 ГБ
Приватный: Нет (DHT включён)
.torrent скачан  0
Как залить торрент? | Как скачать Torrent? | Как смотреть и слушать онлайн?  


     Отправить личное сообщение
   
Страница 1 из 1
Показать сообщения за:  Поле сортировки  
Начать новую тему Ответить на тему

   Похожие торренты   Автор   Ответы   Просмотры   Последнее сообщение 
В этой теме нет новых непрочитанных сообщений. Скачать торрент Проверен Звездный путь / Star Trek (2009) BDRip 1080p

в форуме 720p | 1080p, Размер: 11.5 ГБ, Здоровье: 100%

Anonymous

0
45|9

44
431

18 сен 2014, 21:38

Anonymous Перейти к последнему сообщению

В этой теме нет новых непрочитанных сообщений. Скачать торрент Проверен Звездный путь / Star Trek (2009) BDRip 720p | Лицензия

в форуме 720p | 1080p, Размер: 6.16 ГБ, Здоровье: 100%

Anonymous

0
33|3

46
242

18 сен 2014, 21:41

Anonymous Перейти к последнему сообщению

В этой теме нет новых непрочитанных сообщений. Скачать торрент Проверен Звездный путь 7: Поколения / Star Trek VII: Generations (1994) BDRip [H.264/720р-LQ]

в форуме 720p | 1080p, Размер: 2.71 ГБ, Здоровье: 100%

Anonymous

0
30|12

57
0

10 май 2015, 11:25

Anonymous Перейти к последнему сообщению

В этой теме нет новых непрочитанных сообщений. Скачать торрент Проверен [iPad] Звездный путь / Star Trek (Джей Джей Абрамс / J.J. Abrams) [2009, фантастика, боевик, BDRip, 1024x] (DUB | VO | Original)

в форуме Фильмы для iPod, iPhone, iPad, Размер: 2.9 ГБ, Здоровье: 100%

Anonymous

0
14|5

31
0

18 май 2015, 10:46

Anonymous Перейти к последнему сообщению

В этой теме нет новых непрочитанных сообщений. Скачать торрент Проверен Звездный путь 8: Первый контакт / Star Trek VIII: First Contact (1996) BDRip [H.264/720р-LQ]

в форуме 720p | 1080p, Размер: 2.64 ГБ, Здоровье: 100%

Anonymous

0
1|0

107
3

10 май 2015, 18:35

Anonymous Перейти к последнему сообщению



Сейчас этот форум просматривают: нет зарегистрированных пользователей и гости: 1


Вы не можете начинать темы
Вы не можете отвечать на сообщения
Вы не можете редактировать свои сообщения
Вы не можете удалять свои сообщения
Вы не можете добавлять вложения

Перейти:  

!ВНИМАНИЕ!
 Ресурс не предоставляет электронные версии произведений, а занимается лишь коллекционированием и каталогизацией ссылок, присылаемых и публикуемых на форуме нашими читателями. Если вы являетесь правообладателем какого-либо представленного материала и не желаете чтобы ссылка на него находилась в нашем каталоге, свяжитесь с нами и мы незамедлительно удалим её. Файлы для обмена на трекере предоставлены пользователями сайта, и администрация не несёт ответственности за их содержание. Просьба не заливать файлы, защищенные авторскими правами, а также файлы нелегального содержания!