На всех торрентах на трекере установлена скидка на скачивание в размере 100 процентов(а).
 Возможность скачивания торрента НЕ зависит от ограничений при низком ратио, низком аплоаде, требуемом ратио или требуемом аплоаде.


Начать новую тему Ответить на тему
Статистика раздачи
Размер: 4.49 ГБ | Добавлен: 21 июл 2013, 16:17 | Скачали: 2
Сидеров: 13  [0 байт/сек]    Личеров: 21  [0 байт/сек]
Пред. тема | След. тема 

Автор
Сообщение

СообщениеДобавлено: 21 июл 2013, 16:17 

Оригинальное название: An Officer and a Gentleman
Год выпуска: 1982
Жанр: Драма, мелодрама
Режиссер: Тэйлор Хэкфорд

В ролях: Ричард Гир, Дебра Уингер, Дэвид Кит, Роберт Лоджа, Лиза Блаунт, Лиза Айлбакер, Луис Госсет мл., Тони Плана, Гарольд Сильвестр, Дэвид Карузо, Виктор Френч, Грейс Забриски, Томми Петерсен, Дэвид Гринфилд, Дэннис Ракер, Джейн Вилбур, Верн Тейлор, Элизабет Роджерс, Дэвид Р. Маршалл, Гари С. Стиллвелл, Ти Деннард, Норберт М. Мюррэй, Дэниэл Тайлер, Уильям С. Грейвз, Брайан Д. Форд, Майкл С. Пейви, Кейт Дж. Хаар, Пиа Бойер, Джон Лофлин, Джеффри П. Рондо, Майкл Ли Болджер, Марк Л. Грейвз, Джо Анна Кин, Эд Бегли мл.

О фильме: Зак Мэйо поступает в военное училище, готовящее пилотов морской авиации. Но даже в страшных снах не могло привидеться ему, через какой ад придётся пройти, когда за него возьмется жестокий инструктор Фоули. После трёх месяцев муштры Зак вполне прочувствовал, что такое армейская дисциплина, и, несмотря на все предупреждения о коварстве местных девушек, якобы только и мечтающих, как бы заполучить себе в мужья лётчика, Зак влюбляется в одну из них. Но, несмотря на все препятствия, герой фильма всё же станет превосходным офицером и обретёт настоящую любовь.



Страна: США
Студия: Lorimar Film Entertainment
Продолжительность: 02:04:14
Перевод: Профессиональный многоголосый, авторский одноголосый


Кодек: MPEG-4 AVC
Качество: BDRip-AVC
Видео: 3500 Кбит/с, 1024x576, 23.976 кадр/с
Звук:
Аудио #1: Русский (AC3, 2 ch, 192 Кбит/с) / Профессиональный многоголосый
Аудио #2: Русский (AC3, 6 ch, 448 Кбит/с) / Авторский одноголосый (Ю.Живов)
Аудио #3: Русский (AC3, 2 ch, 192 Кбит/с) / Авторский одноголосый (А.Гаврилов)
Аудио #4: Русский (AC3, 2 ch, 192 Кбит/с) / Авторский одноголосый (В.Горчаков)
Аудио #5: Русский (AC3, 2 ch, 192 Кбит/с) / Авторский одноголосый (А.Михалев)
Аудио #6: Английский (AC3, 6 ch, 448 Кбит/с)
Субтитры: Русские, английские

Семпл

Общее
Уникальный идентификатор : 241549153277095212245007408506940471133 (0xB5B8ACBB5A44CA33AE410D6306B4B75D)
Полное имя : G:TorrentsOficer.i.dzhentlmen.1982.x264.BDRip.(AVC)-MediaClub.mkv
Формат : Matroska
Версия формата : Version 2
Размер файла : 4,49 Гбайт
Продолжительность : 2 ч. 4 м.
Общий поток : 5169 Кбит/сек
Название фильма : -=Released by Kortec for MediaClub=-
Дата кодирования : UTC 2013-07-21 03:57:22
Программа кодирования : mkvmerge v4.0.0 ('The Stars were mine') сборка от Jun 6 2010 16:18:42
Библиотека кодирования : libebml v1.0.0 + libmatroska v1.0.0

Видео
Идентификатор : 1
Формат : AVC
Формат/Информация : Advanced Video Codec
Профиль формата : High@L4.1
Параметр CABAC формата : Да
Параметр ReFrames формата : 9 кадров
Идентификатор кодека : V_MPEG4/ISO/AVC
Продолжительность : 2 ч. 4 м.
Битрейт : 3500 Кбит/сек
Ширина : 1024 пикселя
Высота : 576 пикселей
Соотношение сторон : 16:9
Режим частоты кадров : Постоянный
Частота кадров : 23,976 кадра/сек
Цветовое пространство : YUV
Субдискретизация насыщенности : 4:2:0
Битовая глубина : 8 бит
Тип развёртки : Прогрессивная
Бит/(Пиксели*Кадры) : 0.247
Размер потока : 2,95 Гбайт (66%)
Библиотека кодирования : x264 core 130 r2273 b3065e6
Настройки программы : cabac=1 / ref=9 / deblock=1:-2:-2 / analyse=0x3:0x133 / me=umh / subme=11 / psy=1 / psy_rd=1.00:0.10 / mixed_ref=1 / me_range=32 / chroma_me=1 / trellis=2 / 8x8dct=1 / cqm=0 / deadzone=21,11 / fast_pskip=0 / chroma_qp_offset=-3 / threads=6 / lookahead_threads=1 / sliced_threads=0 / nr=0 / decimate=0 / interlaced=0 / bluray_compat=0 / constrained_intra=0 / bframes=7 / b_pyramid=2 / b_adapt=2 / b_bias=0 / direct=3 / weightb=1 / open_gop=0 / weightp=2 / keyint=240 / keyint_min=23 / scenecut=40 / intra_refresh=0 / rc=2pass / mbtree=0 / bitrate=3500 / ratetol=1.0 / qcomp=0.60 / qpmin=0 / qpmax=69 / qpstep=4 / cplxblur=20.0 / qblur=0.5 / ip_ratio=1.40 / pb_ratio=1.30 / aq=1:0.80
Язык : English
Default : Нет
Forced : Нет

Аудио #1
Идентификатор : 2
Формат : AC-3
Формат/Информация : Audio Coding 3
Расширение режима : CM (complete main)
Параметр Endianness формата : Big
Идентификатор кодека : A_AC3
Продолжительность : 2 ч. 4 м.
Вид битрейта : Постоянный
Битрейт : 192 Кбит/сек
Каналы : 2 канала
Расположение каналов : Front: L R
Частота : 48,0 КГц
Битовая глубина : 16 бит
Метод сжатия : С потерями
Размер потока : 171 Мбайт (4%)
Заголовок : MVO
Язык : Russian
Default : Да
Forced : Да

Аудио #2
Идентификатор : 3
Формат : AC-3
Формат/Информация : Audio Coding 3
Расширение режима : CM (complete main)
Параметр Endianness формата : Big
Идентификатор кодека : A_AC3
Продолжительность : 2 ч. 4 м.
Вид битрейта : Постоянный
Битрейт : 448 Кбит/сек
Каналы : 6 каналов
Расположение каналов : Front: L C R, Side: L R, LFE
Частота : 48,0 КГц
Битовая глубина : 16 бит
Метод сжатия : С потерями
Размер потока : 398 Мбайт (9%)
Заголовок : AVO - Живов
Язык : Russian
Default : Нет
Forced : Нет

Аудио #3
Идентификатор : 4
Формат : AC-3
Формат/Информация : Audio Coding 3
Расширение режима : CM (complete main)
Параметр Endianness формата : Big
Идентификатор кодека : A_AC3
Продолжительность : 2 ч. 4 м.
Вид битрейта : Постоянный
Битрейт : 192 Кбит/сек
Каналы : 2 канала
Расположение каналов : Front: L R
Частота : 48,0 КГц
Битовая глубина : 16 бит
Метод сжатия : С потерями
Размер потока : 171 Мбайт (4%)
Заголовок : AVO - Гаврилов
Язык : Russian
Default : Нет
Forced : Нет

Аудио #4
Идентификатор : 5
Формат : AC-3
Формат/Информация : Audio Coding 3
Расширение режима : CM (complete main)
Параметр Endianness формата : Big
Идентификатор кодека : A_AC3
Продолжительность : 2 ч. 4 м.
Вид битрейта : Постоянный
Битрейт : 192 Кбит/сек
Каналы : 2 канала
Расположение каналов : Front: L R
Частота : 48,0 КГц
Битовая глубина : 16 бит
Метод сжатия : С потерями
Размер потока : 171 Мбайт (4%)
Заголовок : AVO - Горчаков
Язык : Russian
Default : Нет
Forced : Нет

Аудио #5
Идентификатор : 6
Формат : AC-3
Формат/Информация : Audio Coding 3
Расширение режима : CM (complete main)
Параметр Endianness формата : Big
Идентификатор кодека : A_AC3
Продолжительность : 2 ч. 4 м.
Вид битрейта : Постоянный
Битрейт : 192 Кбит/сек
Каналы : 2 канала
Расположение каналов : Front: L R
Частота : 48,0 КГц
Битовая глубина : 16 бит
Метод сжатия : С потерями
Размер потока : 171 Мбайт (4%)
Заголовок : AVO - Михалёв
Язык : Russian
Default : Нет
Forced : Нет

Аудио #6
Идентификатор : 7
Формат : AC-3
Формат/Информация : Audio Coding 3
Расширение режима : CM (complete main)
Параметр Endianness формата : Big
Идентификатор кодека : A_AC3
Продолжительность : 2 ч. 4 м.
Вид битрейта : Постоянный
Битрейт : 448 Кбит/сек
Каналы : 6 каналов
Расположение каналов : Front: L C R, Side: L R, LFE
Частота : 48,0 КГц
Битовая глубина : 16 бит
Метод сжатия : С потерями
Размер потока : 398 Мбайт (9%)
Язык : English
Default : Нет
Forced : Нет

Текст #1
Идентификатор : 8
Формат : UTF-8
Идентификатор кодека : S_TEXT/UTF8
Идентификатор кодека/Информация : UTF-8 Plain Text
Язык : Russian
Default : Нет
Forced : Нет

Текст #2
Идентификатор : 9
Формат : UTF-8
Идентификатор кодека : S_TEXT/UTF8
Идентификатор кодека/Информация : UTF-8 Plain Text
Язык : English
Default : Нет
Forced : Нет





Релиз от: |
загрузка...
Правила, инструкции, FAQ!!!
Торрент  Добавлен [21 июл 2013, 16:17] Скачать торрент
Скачать торрент
[ Размер 11.86 КБ / Просмотров 7 ]

Статус  
 
Размер  4.49 ГБ
Приватный: Нет (DHT включён)
.torrent скачан  2
Как залить торрент? | Как скачать Torrent? | Как смотреть и слушать онлайн?  


     Отправить личное сообщение
   
Страница 1 из 1
Показать сообщения за:  Поле сортировки  
Начать новую тему Ответить на тему

   Похожие торренты   Автор   Ответы   Просмотры   Последнее сообщение 
В этой теме нет новых непрочитанных сообщений. Скачать торрент Проверен (Blues Rock) [CD] Jordan Officer - I'm Free - 2014 (Jordan Officer Canada), FLAC (tracks+.cue), lossless

в форуме Blues (Texas, Chicago, Modern and Others), Размер: 241.55 МБ, Здоровье: 0%

Anonymous

0
0|0

0
0

16 окт 2016, 13:27

Anonymous Перейти к последнему сообщению

В этой теме нет новых непрочитанных сообщений. Скачать торрент Проверен Платонов Андрей - Македонский офицер [1995, RTF, RUS]

в форуме Русская литература, Размер: 618.38 КБ, Здоровье: 0%

Anonymous

0
0|0

4
1

07 сен 2016, 21:51

Anonymous Перейти к последнему сообщению

В этой теме нет новых непрочитанных сообщений. Скачать торрент Проверен Андрей Земляной, Борис Орлов | Офицер (2014) [FB2]

в форуме Фантастика, фэнтези, Размер: 1.11 МБ, Здоровье: 100%

Гость

0
300|3

826
26

23 июн 2015, 00:09

Гость Перейти к последнему сообщению

В этой теме нет новых непрочитанных сообщений. Скачать торрент Проверен (Шансон) Группа Офицер - Русская гвардия - 1994, MP3, 320 kbps

в форуме Шансон|Авторская песня, Размер: 103.18 МБ, Здоровье: 0%

Anonymous

0
0|0

0
0

05 ноя 2016, 19:09

Anonymous Перейти к последнему сообщению

В этой теме нет новых непрочитанных сообщений. Скачать торрент Проверен (Progressive Metal) Mind's Eye - A Gentleman's Hurricane - 2007, FLAC (image+.cue), lossless

в форуме Heavy, Power, Progressive (Metal), Размер: 595.11 МБ, Здоровье: 0%

Anonymous

0
0|0

0
0

11 окт 2016, 01:29

Anonymous Перейти к последнему сообщению



Сейчас этот форум просматривают: нет зарегистрированных пользователей и гости: 1


Вы не можете начинать темы
Вы не можете отвечать на сообщения
Вы не можете редактировать свои сообщения
Вы не можете удалять свои сообщения
Вы не можете добавлять вложения

Перейти:  

!ВНИМАНИЕ!
 Ресурс не предоставляет электронные версии произведений, а занимается лишь коллекционированием и каталогизацией ссылок, присылаемых и публикуемых на форуме нашими читателями. Если вы являетесь правообладателем какого-либо представленного материала и не желаете чтобы ссылка на него находилась в нашем каталоге, свяжитесь с нами и мы незамедлительно удалим её. Файлы для обмена на трекере предоставлены пользователями сайта, и администрация не несёт ответственности за их содержание. Просьба не заливать файлы, защищенные авторскими правами, а также файлы нелегального содержания!