На всех торрентах на трекере установлена скидка на скачивание в размере 100 процентов(а).
 Возможность скачивания торрента НЕ зависит от ограничений при низком ратио, низком аплоаде, требуемом ратио или требуемом аплоаде.


Начать новую тему Ответить на тему
Статистика раздачи
Размер: 2.19 ГБ | Добавлен: 21 июл 2013, 15:40 | Скачали: 4
Сидеров: 14  [0 байт/сек]    Личеров: 4  [0 байт/сек]
Пред. тема | След. тема 

Автор
Сообщение

СообщениеДобавлено: 21 июл 2013, 15:40 

Год выпуска: 2004
Производство: Франция / Canal+ [fr], Ciné Cinémas, Gaumont International, KL Productions, LGM Productions...
Жанр: Детектив, боевик, триллер
Продолжительность: 01:46:30
Перевод: Профессиональный (полное дублирование)
Субтитры: Английские, русские


Режиссер: Оливье Маршаль / Olivier Marchal

В ролях: Даниель Отой, Жерар Депардье, Андре Дюссолье, Рошди Зем, Валерия Голино, Даниэль Дюваль, Франсис Рено, Катрин Маршаль, Венсан Москато, Эрик Дефосс, Иван Франек, Оливье Маршаль, Милен Демонжо, Милен Джампаной

О фильме: В Париже вот уже несколько месяцев хозяйничает банда неуловимых и опасных преступников. Чуть ли не каждый день они умудряются совершать нападения на хорошо охраняемые банки, и каждый раз выходят сухими из воды. У двух талантливых и амбициозных полицейских — Лео Вринкса, начальника Отдела по борьбе с бандитизмом, и Дэниса Клейна, главы Отдела по борьбе с организованной преступностью, появляется реальный шанс подняться по служебной лестнице. Шеф полиции Роберт Манчини, их добрый друг, ставит им следующее условие: тот, кто сумеет разоружить банду налетчиков, станет Шефом полиции знаменитого Управления по адресу Набережная Орфевр, 36. Между двумя суперполицейскими разворачивается настоящая борьба. Бывшие друзья, а ныне непримиримые враги, испытывают разногласия буквально во всем — начиная от методов поимки преступников и заканчивая выбором подчиненных. Кроме того, вот уже много лет между ними стоит прекрасная женщина Камилль Вринкс. А если дело касается женщины, то компромиссов быть не может!


Бюджет: €13 580 000





Качество: BDRip-AVC [Naberezhnaya.Orfevr.36.2004.VC-1.Blu-ray.Remux]
Формат: MKV
Видео: H.264, 1024x436 (2.35:1), 23.976 fps, 1920 Кbps, 0.179 bit/pixel
Аудио#1: 48 kHz, AC3 Dolby Digital, 3/2 (L,C,R,l,r) + LFE ch, 448.00 kbps | RUS
Аудио#2: 48 kHz, AC3 Dolby Digital, 3/2 (L,C,R,l,r) + LFE ch, 448.00 kbps | FRE


Автор рипа:


Общее
Уникальный идентификатор : 237171407878862192548491860213640104747 (0xB26D8D38309533D9BC9B072CF93A8B2B)
Полное имя : Naberezhnaja.Orfevr.36.2004.D.BDRip.x264.potroks.mkv
Формат : Matroska
Версия формата : Version 4 / Version 2
Размер файла : 2,19 Гбайт
Продолжительность : 1 ч. 51 м.
Общий поток : 2816 Кбит/сек
Название фильма : -=POTROKS=-
Дата кодирования : UTC 2013-07-21 11:32:32
Программа кодирования : mkvmerge v5.9.0 ('On The Loose') built on Dec 15 2012 16:39:58
Библиотека кодирования : libebml v1.3.0 + libmatroska v1.4.0

Видео
Идентификатор : 1
Формат : AVC
Формат/Информация : Advanced Video Codec
Профиль формата : High@L4.1
Параметр CABAC формата : Да
Параметр ReFrames формата : 10 кадров
Идентификатор кодека : V_MPEG4/ISO/AVC
Продолжительность : 1 ч. 51 м.
Битрейт : 1920 Кбит/сек
Ширина : 1024 пикселя
Высота : 436 пикселей
Соотношение сторон : 2,35:1
Режим частоты кадров : Постоянный
Частота кадров : 23,976 кадра/сек
Цветовое пространство : YUV
Субдискретизация насыщенности : 4:2:0
Битовая глубина : 8 бит
Тип развёртки : Прогрессивная
Бит/(Пиксели*Кадры) : 0.179
Размер потока : 1,45 Гбайт (66%)
Заголовок : 36 Quai des Orfevres
Библиотека кодирования : x264 core 130 r2273 b3065e6
Настройки программы : cabac=1 / ref=10 / deblock=1:-3:-2 / analyse=0x3:0x133 / me=umh / subme=11 / psy=1 / psy_rd=1.05:0.00 / mixed_ref=1 / me_range=32 / chroma_me=1 / trellis=2 / 8x8dct=1 / cqm=0 / deadzone=21,11 / fast_pskip=0 / chroma_qp_offset=-2 / threads=9 / lookahead_threads=2 / sliced_threads=0 / nr=0 / decimate=1 / interlaced=0 / bluray_compat=0 / constrained_intra=0 / bframes=11 / b_pyramid=2 / b_adapt=2 / b_bias=0 / direct=3 / weightb=1 / open_gop=0 / weightp=2 / keyint=250 / keyint_min=23 / scenecut=40 / intra_refresh=0 / rc_lookahead=150 / rc=2pass / mbtree=1 / bitrate=1920 / ratetol=1.0 / qcomp=0.70 / qpmin=0 / qpmax=69 / qpstep=4 / cplxblur=20.0 / qblur=0.5 / vbv_maxrate=20000 / vbv_bufsize=20000 / nal_hrd=none / ip_ratio=1.35 / aq=1:0.70
Язык : French
Default : Да
Forced : Нет

Аудио #1
Идентификатор : 2
Формат : AC-3
Формат/Информация : Audio Coding 3
Расширение режима : CM (complete main)
Параметр Endianness формата : Big
Идентификатор кодека : A_AC3
Продолжительность : 1 ч. 51 м.
Вид битрейта : Постоянный
Битрейт : 448 Кбит/сек
Каналы : 5 каналов
Расположение каналов : Front: L C R, Side: L R
Частота : 48,0 КГц
Битовая глубина : 16 бит
Метод сжатия : С потерями
Размер потока : 356 Мбайт (16%)
Заголовок : Dub | DD 5.1 @ 448 kbps - R5
Язык : Russian
Default : Да
Forced : Да

Аудио #2
Идентификатор : 3
Формат : AC-3
Формат/Информация : Audio Coding 3
Расширение режима : CM (complete main)
Параметр Endianness формата : Big
Идентификатор кодека : A_AC3
Продолжительность : 1 ч. 51 м.
Вид битрейта : Постоянный
Битрейт : 448 Кбит/сек
Каналы : 6 каналов
Расположение каналов : Front: L C R, Side: L R, LFE
Частота : 48,0 КГц
Битовая глубина : 16 бит
Метод сжатия : С потерями
Размер потока : 356 Мбайт (16%)
Заголовок : Original | DD 5.1 @ 448 kbps
Язык : French
Default : Нет
Forced : Нет

Текст #1
Идентификатор : 4
Формат : UTF-8
Идентификатор кодека : S_TEXT/UTF8
Идентификатор кодека/Информация : UTF-8 Plain Text
Язык : English
Default : Нет
Forced : Нет

Текст #2
Идентификатор : 5
Формат : UTF-8
Идентификатор кодека : S_TEXT/UTF8
Идентификатор кодека/Информация : UTF-8 Plain Text
Язык : Russian
Default : Нет
Forced : Нет
x264 [info]: frame I:1252 Avg QP:15.20 size: 66895
x264 [info]: frame P:33143 Avg QP:18.08 size: 21508
x264 [info]: frame B:125317 Avg QP:20.45 size: 6397
x264 [info]: consecutive B-frames: 1.9% 2.8% 7.2% 11.2% 11.8% 59.3% 3.6% 0.6% 0.7% 0.3% 0.3% 0.2%
x264 [info]: mb I I16..4: 7.6% 72.2% 20.1%
x264 [info]: mb P I16..4: 0.8% 5.1% 1.3% P16..4: 30.7% 37.7% 14.5% 2.2% 0.3% skip: 7.5%
x264 [info]: mb B I16..4: 0.1% 0.5% 0.1% B16..8: 37.5% 20.3% 3.3% direct: 4.3% skip:34.0% L0:44.2% L1:45.3% BI:10.5%
x264 [info]: 8x8 transform intra:71.1% inter:58.7%
x264 [info]: direct mvs spatial:98.7% temporal:1.3%
x264 [info]: coded y,uvDC,uvAC intra: 82.9% 79.5% 49.7% inter: 23.5% 14.9% 1.1%
x264 [info]: i16 v,h,dc,p: 56% 11% 6% 27%
x264 [info]: i8 v,h,dc,ddl,ddr,vr,hd,vl,hu: 12% 7% 6% 11% 14% 14% 13% 11% 12%
x264 [info]: i4 v,h,dc,ddl,ddr,vr,hd,vl,hu: 33% 7% 6% 7% 10% 10% 9% 9% 8%
x264 [info]: i8c dc,h,v,p: 33% 30% 21% 16%
x264 [info]: Weighted P-Frames: Y:4.4% UV:1.9%
x264 [info]: ref P L0: 43.2% 9.5% 18.3% 7.2% 6.2% 4.6% 4.2% 2.3% 2.2% 2.0% 0.3% 0.0%
x264 [info]: ref B L0: 73.8% 11.1% 5.7% 2.9% 2.1% 1.8% 1.5% 0.7% 0.3%
x264 [info]: ref B L1: 93.7% 6.3%
x264 [info]: kb/s:1919.42

x264 [total]: encoded 159712 frames, 8.05 fps, 1919.42 kb/s
TIME
------------------------------
Общее время кодирования: 7 hour 28 min 6 sec
Файл получился на: 1525.34 mb

загрузка...
Правила, инструкции, FAQ!!!
Торрент  Добавлен [21 июл 2013, 15:40] Скачать торрент
Скачать торрент
[ Размер 11.45 КБ / Просмотров 7 ]

Статус  
 
Размер  2.19 ГБ
Приватный: Нет (DHT включён)
.torrent скачан  4
Как залить торрент? | Как скачать Torrent? | Как смотреть и слушать онлайн?  


     Отправить личное сообщение
   
Страница 1 из 1
Показать сообщения за:  Поле сортировки  
Начать новую тему Ответить на тему

   Похожие торренты   Автор   Ответы   Просмотры   Последнее сообщение 
В этой теме нет новых непрочитанных сообщений. Скачать торрент Набережная Орфевр, 36 / Department 36 / 36 Quai des Orfevres / 36 Quai des Orfèvres (Оливье Маршаль / Olivier Marchal) [2004, криминальная драма, BDRip] Dub

в форуме Драмы, Мелодрамы, Размер: 1.46 ГБ, Здоровье: 100%

Anonymous

0
126|16

35
0

22 апр 2014, 11:40

Anonymous Перейти к последнему сообщению

В этой теме нет новых непрочитанных сообщений. Скачать торрент Проверен Набережная Орфевр, 36 / 36 Quai des Orfevres (2004) BDRip [H.264/720p]

в форуме 720p | 1080p, Размер: 4.73 ГБ, Здоровье: 90%

Гость

0
19|21

60
0

04 апр 2015, 09:23

Гость Перейти к последнему сообщению

В этой теме нет новых непрочитанных сообщений. Скачать торрент Проверен Ex Libris - Иосиф Бродский - Набережная неисцелимых. Тринадцать эссе [1992, DjVu/FB2, RUS]

в форуме Русская литература, Размер: 13.79 МБ, Здоровье: 0%

Anonymous

0
0|0

3
0

08 сен 2016, 00:18

Anonymous Перейти к последнему сообщению

В этой теме нет новых непрочитанных сообщений. Скачать торрент Гарфилд / Garfield (2004) BDRip

в форуме Комедии, Размер: 1.71 ГБ, Здоровье: 0%

Anonymous

0
0|0

27
1

12 дек 2013, 08:56

Anonymous Перейти к последнему сообщению

В этой теме нет новых непрочитанных сообщений. Скачать торрент Проверен Евротур / EuroTrip (2004) BDRip

в форуме Комедии, Размер: 1.45 ГБ, Здоровье: 0%

Anonymous

0
0|0

22
0

11 дек 2013, 08:42

Anonymous Перейти к последнему сообщению



Сейчас этот форум просматривают: нет зарегистрированных пользователей и гости: 3


Вы не можете начинать темы
Вы не можете отвечать на сообщения
Вы не можете редактировать свои сообщения
Вы не можете удалять свои сообщения
Вы не можете добавлять вложения

Перейти:  

!ВНИМАНИЕ!
 Ресурс не предоставляет электронные версии произведений, а занимается лишь коллекционированием и каталогизацией ссылок, присылаемых и публикуемых на форуме нашими читателями. Если вы являетесь правообладателем какого-либо представленного материала и не желаете чтобы ссылка на него находилась в нашем каталоге, свяжитесь с нами и мы незамедлительно удалим её. Файлы для обмена на трекере предоставлены пользователями сайта, и администрация не несёт ответственности за их содержание. Просьба не заливать файлы, защищенные авторскими правами, а также файлы нелегального содержания!