На всех торрентах на трекере установлена скидка на скачивание в размере 100 процентов(а).
 Возможность скачивания торрента НЕ зависит от ограничений при низком ратио, низком аплоаде, требуемом ратио или требуемом аплоаде.


Начать новую тему Ответить на тему
Статистика раздачи
Размер: 3.74 ГБ | Добавлен: 20 июл 2013, 14:01 | Скачали: 2
Сидеров: 2  [0 байт/сек]    Личеров: 0  [0 байт/сек]
Пред. тема | След. тема 

Автор
Сообщение

СообщениеДобавлено: 20 июл 2013, 14:01 

Название: Гонщик
Оригинальное название: Driven
Год выхода: 2001
Жанр: Драма, спорт, боевик
Режиссер: Ренни Харлин

В ролях: Сильвестр Сталлоне, Берт Рейнолдс, Кип Парду, Стэйси Эдвардс, Тиль Швайгер, Джина Гершон, Эстелла Уоррен, Кристиан де ла Фуэнте, Брент Бриско, Роберт Шон Леонард, Верона Пут, Ясмин Вагнер, Джон Делла Пенна, Дэн Дюран, Роберт Честер Смит, Ричард Зэппери, Тино Монте, Брайан Хейтон, Ренни Харлин, Луукас Харлин, Питер Косака, Фрэнк Бленч, Барри Стиллвелл, Бретт Хёрд, Филлип МакКензи, Лиз Уэст, Майкл Бойсверт, Джеффри Найт, Вейн Бест, Джейн Моффат, Джэйк Саймонс, Жан Алези, Майкл Андретти, Кенни Брак, Патрик Карпентье, Кристьяно Да Матта, Адриан Фернандез, Кристиан Фиттипальди, Дарио Франчитти, Луис Гарсиа мл., Маурицио Гугельмин, Мишель Журден мл., Тони Канаан, Хуан Пабло Монтойя, Роберто Морено, Макс Папис, Ориол Сервия, Алекс Тальяни, Пол Трэйси, Джимми Вассер

О фильме:
Чрезвычайно талантливый, но еще очень молодой гонщик Джимми Блай внезапно начинает терять «хватку». Блай — восходящая звезда, и босс его команды отчетливо понимает, что срочно необходим «матерый» специалист-наставник, который не даст карьере Джимми сойти «на нет». Этим специалистом становится Джо Тэнто — опытнейший гонщик и экс-чемпион. Некоторое время назад Тэнто вынужден был покинуть мир гонок из-за несчастного случая. Но теперь у Джо есть уникальный шанс не только сделать юного Блая новым королем гонщиков, но и доказать всем, на что еще способен он сам.
За исходник огромная благодарность Respector за исходник
Сценарий к фильму Сильвестр Сталлоне написал сам. Первоначальный вариант был объемом 220 страниц.
Золотая малина, 2002 год
Победитель (1):
Худшая женская роль второго плана (Эстелла Уоррен)
Номинации (6):
Худший фильм
Худшая мужская роль второго плана (Берт Рейнолдс)
Худшая мужская роль второго плана (Сильвестр Сталлоне)
Худший режиссер (Ренни Харлин)
Худший сценарий
Худшая экранная пара — «Сильвестр Сталлоне и Берт Рейнолдс»
General
Unique ID : 172060223589518040334147249062693427365 (0x817197FBBBD46F4D9FE1D0A886D1D8A5)
Complete name : H:ФильмСделать русский переводГотовые сделаные релизыGonschik.2001.x264.BDRip.AVC-MediaClub.mkv
Format : Matroska
Format version : Version 2
File size : 3.74 GiB
Duration : 1h 56mn
Overall bit rate : 4 589 Kbps
Movie name : Gonschik (2001) BDRip-AVC -MediaClub- ==[Викс]==
Encoded date : UTC 2013-07-12 16:29:59
Writing application : mkvmerge v5.8.0 ('No Sleep / Pillow') built on Sep 2 2012 15:37:04
Writing library : libebml v1.2.3 + libmatroska v1.3.0

Video
ID : 1
Format : AVC
Format/Info : Advanced Video Codec
Format profile : High@L4.1
Format settings, CABAC : Yes
Format settings, ReFrames : 8 frames
Codec ID : V_MPEG4/ISO/AVC
Duration : 1h 56mn
Bit rate : 3 500 Kbps
Width : 1 024 pixels
Height : 426 pixels
Display aspect ratio : 2.40:1
Frame rate mode : Constant
Frame rate : 23.976 fps
Color space : YUV
Chroma subsampling : 4:2:0
Bit depth : 8 bits
Scan type : Progressive
Bits/(Pixel*Frame) : 0.335
Stream size : 2.78 GiB (74%)
Writing library : x264 core 133 r2334 a3ac64b
Encoding settings : cabac=1 / ref=8 / deblock=1:-2:-2 / analyse=0x3:0x133 / me=umh / subme=11 / psy=1 / psy_rd=1.00:0.20 / mixed_ref=1 / me_range=48 / chroma_me=1 / trellis=2 / 8x8dct=1 / cqm=0 / deadzone=21,11 / fast_pskip=0 / chroma_qp_offset=0 / threads=6 / lookahead_threads=1 / sliced_threads=0 / nr=0 / decimate=0 / interlaced=0 / bluray_compat=0 / constrained_intra=0 / bframes=8 / b_pyramid=2 / b_adapt=2 / b_bias=0 / direct=3 / weightb=1 / open_gop=0 / weightp=2 / keyint=240 / keyint_min=23 / scenecut=40 / intra_refresh=0 / rc_lookahead=40 / rc=2pass / mbtree=0 / bitrate=3500 / ratetol=1.0 / qcomp=0.60 / qpmin=0 / qpmax=69 / qpstep=4 / cplxblur=20.0 / qblur=0.5 / vbv_maxrate=50000 / vbv_bufsize=52500 / nal_hrd=none / ip_ratio=1.40 / pb_ratio=1.30 / aq=1:1.00
Language : English
Default : Yes
Forced : No

Audio #1
ID : 2
Format : AC-3
Format/Info : Audio Coding 3
Mode extension : CM (complete main)
Format settings, Endianness : Big
Codec ID : A_AC3
Duration : 1h 56mn
Bit rate mode : Constant
Bit rate : 448 Kbps
Channel(s) : 6 channels
Channel positions : Front: L C R, Side: L R, LFE
Sampling rate : 48.0 KHz
Bit depth : 16 bits
Compression mode : Lossy
Stream size : 374 MiB (10%)
Title : Dublyazh
Language : Russian
Default : Yes
Forced : No

Audio #2
ID : 3
Format : AC-3
Format/Info : Audio Coding 3
Mode extension : CM (complete main)
Format settings, Endianness : Big
Codec ID : A_AC3
Duration : 1h 56mn
Bit rate mode : Constant
Bit rate : 192 Kbps
Channel(s) : 2 channels
Channel positions : Front: L R
Sampling rate : 48.0 KHz
Bit depth : 16 bits
Compression mode : Lossy
Stream size : 160 MiB (4%)
Title : AP (Zhivov)
Language : Russian
Default : No
Forced : No

Audio #3
ID : 4
Format : AC-3
Format/Info : Audio Coding 3
Mode extension : CM (complete main)
Format settings, Endianness : Big
Codec ID : A_AC3
Duration : 1h 56mn
Bit rate mode : Constant
Bit rate : 448 Kbps
Channel(s) : 6 channels
Channel positions : Front: L C R, Side: L R, LFE
Sampling rate : 48.0 KHz
Bit depth : 16 bits
Compression mode : Lossy
Stream size : 374 MiB (10%)
Language : English
Default : No
Forced : No

Text #1
ID : 5
Format : UTF-8
Codec ID : S_TEXT/UTF8
Codec ID/Info : UTF-8 Plain Text
Language : Russian
Default : Yes
Forced : No

Text #2
ID : 6
Format : UTF-8
Codec ID : S_TEXT/UTF8
Codec ID/Info : UTF-8 Plain Text
Language : English
Default : No
Forced : No

Menu
00:00:00.000 : :Chapter 01
00:04:42.282 : :Chapter 02
00:06:30.264 : :Chapter 03
00:10:26.626 : :Chapter 04
00:13:11.665 : :Chapter 05
00:15:40.230 : :Chapter 06
00:18:02.122 : :Chapter 07
00:22:24.051 : :Chapter 08
00:26:55.447 : :Chapter 09
00:30:27.158 : :Chapter 10
00:33:35.722 : :Chapter 11
00:38:22.842 : :Chapter 12
00:40:22.420 : :Chapter 13
00:45:10.290 : :Chapter 14
00:49:00.395 : :Chapter 15
00:52:40.407 : :Chapter 16
00:56:18.750 : :Chapter 17
00:58:59.452 : :Chapter 18
01:02:13.229 : :Chapter 19
01:04:33.703 : :Chapter 20
01:06:38.160 : :Chapter 21
01:09:34.670 : :Chapter 22
01:13:44.878 : :Chapter 23
01:16:07.980 : :Chapter 24
01:20:47.676 : :Chapter 25
01:25:52.522 : :Chapter 26
01:28:05.947 : :Chapter 27
01:32:24.580 : :Chapter 28
01:36:24.695 : :Chapter 29
01:38:30.362 : :Chapter 30
01:40:57.009 : :Chapter 31
01:44:15.540 : :Chapter 32
01:47:01.206 : :Chapter 33
01:49:37.571 : :Chapter 34
01:56:48.793 : :Chapter 35
x264 [info]: frame I:1637 Avg QP:18.20 size: 68117
x264 [info]: frame P:48179 Avg QP:20.85 size: 29207
x264 [info]: frame B:118234 Avg QP:22.62 size: 13083



Страна: США, Канада, Австралия
Студия: Franchise Pictures, Epsilon Motion Pictures, Trackform Film Productions, Champs Productions
Продолжительность: 01:56:50
Перевод: Дублированный, авторский (Живов)


Кодек: x264
Качество: BDRip AVC
Видео: MPEG-4 AVC, 3500 Кбит/с, 1024x426, 23.976 кадр/с
Звук:
Аудио #1: Русский (AC3, 6 ch, 448 Кбит/с) / Дублированный
Аудио #2: Русский (AC3, 2 ch, 192 Кбит/с) / Авторский (Живов)
Аудио #3: Английский (AC3, 6 ch, 448 Кбит/с)
Субтитры: Русские, английские

Семпл



Релиз от: Рип - Викс
загрузка...
Правила, инструкции, FAQ!!!
Торрент  Добавлен [20 июл 2013, 14:01] Скачать торрент
Скачать торрент
[ Размер 19.3 КБ / Просмотров 7 ]

Статус  
 
Размер  3.74 ГБ
Приватный: Нет (DHT включён)
.torrent скачан  2
Как залить торрент? | Как скачать Torrent? | Как смотреть и слушать онлайн?  


     Отправить личное сообщение
   
Страница 1 из 1
Показать сообщения за:  Поле сортировки  
Начать новую тему Ответить на тему

   Похожие торренты   Автор   Ответы   Просмотры   Последнее сообщение 
В этой теме нет новых непрочитанных сообщений. Скачать торрент Гонщик / Driven (Ренни Харлин / Renny Harlin) [2001 г., Боевик, Драма, DVDRip] Dub

в форуме Боевики, Размер: 744.36 МБ, Здоровье: 100%

Anonymous

0
5|2

44
0

10 фев 2014, 13:06

Anonymous Перейти к последнему сообщению

В этой теме нет новых непрочитанных сообщений. Скачать торрент Призрачный гонщик / Ghost Rider (2007) BDRip 720p

в форуме 720p | 1080p, Размер: 3.53 ГБ, Здоровье: 100%

Anonymous

0
25|2

47
51

31 янв 2014, 19:07

Anonymous Перейти к последнему сообщению

В этой теме нет новых непрочитанных сообщений. Скачать торрент Проверен (Acoustic) Uriah Heep - Acoustically Driven - 2001, MP3 (tracks), 320 kbps

в форуме Classic Rock & Hard Rock, Размер: 346.72 МБ, Здоровье: 0%

Anonymous

0
0|0

1
0

13 ноя 2016, 15:36

Anonymous Перейти к последнему сообщению

В этой теме нет новых непрочитанных сообщений. Скачать торрент Проверен (Rock) Uriah Heep - Electrically Driven - 2001, APE (.ape,.cue,.log,covers) - lossless

в форуме Classic Rock & Hard Rock, Размер: 437.95 МБ, Здоровье: 100%

Anonymous

0
2|1

0
0

03 сен 2016, 13:01

Anonymous Перейти к последнему сообщению

В этой теме нет новых непрочитанных сообщений. Скачать торрент Проверен (Progressive Rock) String Driven Thing - String Driven Thing (2nd album) - 1972, FLAC (image+.cue), lossless

в форуме Progressive & Art-Rock, Размер: 415.22 МБ, Здоровье: 0%

Anonymous

0
0|0

3
0

01 сен 2016, 12:54

Anonymous Перейти к последнему сообщению



Сейчас этот форум просматривают: нет зарегистрированных пользователей и гости: 2


Вы не можете начинать темы
Вы не можете отвечать на сообщения
Вы не можете редактировать свои сообщения
Вы не можете удалять свои сообщения
Вы не можете добавлять вложения

Перейти:  

!ВНИМАНИЕ!
 Ресурс не предоставляет электронные версии произведений, а занимается лишь коллекционированием и каталогизацией ссылок, присылаемых и публикуемых на форуме нашими читателями. Если вы являетесь правообладателем какого-либо представленного материала и не желаете чтобы ссылка на него находилась в нашем каталоге, свяжитесь с нами и мы незамедлительно удалим её. Файлы для обмена на трекере предоставлены пользователями сайта, и администрация не несёт ответственности за их содержание. Просьба не заливать файлы, защищенные авторскими правами, а также файлы нелегального содержания!