На всех торрентах на трекере установлена скидка на скачивание в размере 100 процентов(а).
 Возможность скачивания торрента НЕ зависит от ограничений при низком ратио, низком аплоаде, требуемом ратио или требуемом аплоаде.


Начать новую тему Ответить на тему
Статистика раздачи
Размер: 2.96 ГБ | Добавлен: 20 июл 2013, 12:30 | Скачали: 1
Сидеров: 18  [0 байт/сек]    Личеров: 1  [0 байт/сек]
Пред. тема | След. тема 

Автор
Сообщение

СообщениеДобавлено: 20 июл 2013, 12:30 

Название: Звездная палата
Оригинальное название: The Star Chamber
Год выхода: 1983
Жанр: Триллер, драма, криминал
Режиссер: Питер Хайамс

В ролях: Майкл Дуглас, Хэл Холбрук, Яфет Котто, Шэрон Глесс, Джеймс Сиккинг, Джо Регалбуто, Дон Кэлфа, Джон ДиСанти, Девейн Джесси, Джек Кихоу, Ларри Хэнкин, Дик Энтони Уильямс, Марджи Имперт, Дэна Гладстоун, Дэвид Провэл, Робин Гэммел, Мэттью Фэйзон, Фред МакКэррен, Майкл Инсайн, Джейсон Бернард, Джерри Тафт, Майкл Остин, Шелон Фелднер, Джеймс Марголин, Хексин Е. МакФи, Диана Дуглас, Кит Бакли, Доминго Амбрис, Фрэнсис Берген, Чарли Ставола

О фильме:
Судье Стивену Хардину кажется, что он сходит с ума: из-за оплошности полицейских, совершивших ошибку при задержании преступника, он вынужден признать его невиновным. В результате убийца 8-летнего мальчика оказывается на свободе. Это не единичный случай.
Судья Бен Кофилд, видя душевные терзания Хардина, предлагает ему стать членом тайного общества, члены которого — такие же слуги несовершенной системы правосудия. Главная цель организации — разбираться с преступниками собственными силами.
Огромная благодарность HDTRACKER за исходник
General
Unique ID : 234620541417455604513026880848524484631 (0xB08245CAF9EDED4AB335634943742017)
Complete name : H:ФильмСделать русский переводГотовые сделаные релизыZvezdnaya.palata.1983.x264.BDRip.AVC-MediaClub.mkv
Format : Matroska
Format version : Version 2
File size : 2.96 GiB
Duration : 1h 48mn
Overall bit rate : 3 897 Kbps
Movie name : Zvezdnaya palata (1983) BDRip (AVC)-MediaClub-=[Викс]=
Encoded date : UTC 2013-07-19 13:00:08
Writing application : mkvmerge v5.8.0 ('No Sleep / Pillow') built on Sep 2 2012 15:37:04
Writing library : libebml v1.2.3 + libmatroska v1.3.0

Video
ID : 1
Format : AVC
Format/Info : Advanced Video Codec
Format profile : High@L4.1
Format settings, CABAC : Yes
Format settings, ReFrames : 8 frames
Codec ID : V_MPEG4/ISO/AVC
Duration : 1h 48mn
Bit rate : 3 000 Kbps
Width : 1 024 pixels
Height : 436 pixels
Display aspect ratio : 2.35:1
Frame rate mode : Constant
Frame rate : 23.976 fps
Color space : YUV
Chroma subsampling : 4:2:0
Bit depth : 8 bits
Scan type : Progressive
Bits/(Pixel*Frame) : 0.280
Stream size : 2.22 GiB (75%)
Writing library : x264 core 133 r2334 a3ac64b
Encoding settings : cabac=1 / ref=8 / deblock=1:-2:-2 / analyse=0x3:0x113 / me=umh / subme=11 / psy=1 / psy_rd=1.00:0.00 / mixed_ref=1 / me_range=48 / chroma_me=1 / trellis=2 / 8x8dct=1 / cqm=0 / deadzone=21,11 / fast_pskip=0 / chroma_qp_offset=1 / threads=6 / lookahead_threads=1 / sliced_threads=0 / nr=0 / decimate=0 / interlaced=0 / bluray_compat=0 / constrained_intra=0 / bframes=8 / b_pyramid=2 / b_adapt=2 / b_bias=0 / direct=3 / weightb=1 / open_gop=0 / weightp=2 / keyint=240 / keyint_min=23 / scenecut=40 / intra_refresh=0 / rc_lookahead=40 / rc=2pass / mbtree=0 / bitrate=3000 / ratetol=1.0 / qcomp=0.60 / qpmin=0 / qpmax=69 / qpstep=4 / cplxblur=20.0 / qblur=0.5 / vbv_maxrate=50000 / vbv_bufsize=52500 / nal_hrd=none / ip_ratio=1.40 / pb_ratio=1.30 / aq=1:0.80
Language : English
Default : Yes
Forced : No

Audio #1
ID : 2
Format : AC-3
Format/Info : Audio Coding 3
Mode extension : CM (complete main)
Format settings, Endianness : Big
Codec ID : A_AC3
Duration : 1h 48mn
Bit rate mode : Constant
Bit rate : 448 Kbps
Channel(s) : 6 channels
Channel positions : Front: L C R, Side: L R, LFE
Sampling rate : 48.0 KHz
Bit depth : 16 bits
Compression mode : Lossy
Stream size : 349 MiB (11%)
Language : Russian
Default : Yes
Forced : No

Audio #2
ID : 3
Format : AC-3
Format/Info : Audio Coding 3
Mode extension : CM (complete main)
Format settings, Endianness : Big
Codec ID : A_AC3
Duration : 1h 48mn
Bit rate mode : Constant
Bit rate : 448 Kbps
Channel(s) : 6 channels
Channel positions : Front: L C R, Side: L R, LFE
Sampling rate : 48.0 KHz
Bit depth : 16 bits
Compression mode : Lossy
Stream size : 349 MiB (11%)
Language : English
Default : No
Forced : No

Text
ID : 4
Format : UTF-8
Codec ID : S_TEXT/UTF8
Codec ID/Info : UTF-8 Plain Text
Language : Russian
Default : Yes
Forced : No

Menu
00:00:00.000 : :Chapter 01
00:08:34.222 : :Chapter 02
00:20:15.839 : :Chapter 03
00:30:22.402 : :Chapter 04
00:40:01.940 : :Chapter 05
00:50:40.245 : :Chapter 06
01:00:23.036 : :Chapter 07
01:12:16.497 : :Chapter 08
01:20:02.380 : :Chapter 09
01:30:53.363 : :Chapter 10
01:42:05.911 : :Chapter 11


Страна: США
Студия: Frank Yablans Presentations, Twentieth Century Fox Film Corporation
Продолжительность: 01:48:46
Перевод: Профессиональный многоголосый


Кодек: x264
Качество: BDRip AVC
Видео: MPEG-4 AVC, 3000 Кбит/с, 1024x436, 23.976 кадр/с
Звук:
Аудио #1: Русский (AC3, 6 ch, 448 Кбит/с) / Профессиональный многоголосый
Аудио #2: Английский (AC3, 6 ch, 448 Кбит/с)
Субтитры: Русские

Семпл



Релиз от: Рип - Викс
загрузка...
Правила, инструкции, FAQ!!!
Торрент  Добавлен [20 июл 2013, 12:30] Скачать торрент
Скачать торрент
[ Размер 15.39 КБ / Просмотров 12 ]

Статус  
 
Размер  2.96 ГБ
Приватный: Нет (DHT включён)
.torrent скачан  1
Как залить торрент? | Как скачать Torrent? | Как смотреть и слушать онлайн?  


     Отправить личное сообщение
   
Страница 1 из 1
Показать сообщения за:  Поле сортировки  
Начать новую тему Ответить на тему

   Похожие торренты   Автор   Ответы   Просмотры   Последнее сообщение 
В этой теме нет новых непрочитанных сообщений. Скачать торрент Anthology: Star Academy / Антология: Звёздная фабрика [L] [RUS] (2008) [7-14]

в форуме Детские, Размер: 1.33 ГБ, Здоровье: 100%

Anonymous

0
41|18

127
3

22 янв 2014, 17:30

Anonymous Перейти к последнему сообщению

В этой теме нет новых непрочитанных сообщений. Скачать торрент Anthology: Star Stable / Антология: Звездная Подкова [L] [RUS] (2008) [10-14]

в форуме Детские, Размер: 1.68 ГБ, Здоровье: 100%

Anonymous

0
1106|176

2991
80

20 апр 2014, 10:12

Anonymous Перейти к последнему сообщению

В этой теме нет новых непрочитанных сообщений. Скачать торрент Проверен Город 312 - Star-Hit - Звёздная коллекция (2010) [FLAC|image + .cue]<Pop Rock>

в форуме Отечественная музыка, Размер: 483.09 МБ, Здоровье: 100%

Гость

0
21|3

85
3

11 окт 2015, 18:01

Гость Перейти к последнему сообщению

В этой теме нет новых непрочитанных сообщений. Скачать торрент Проверен Любэ - Новое и лучшее. Star Hit-Звездная коллекция (2010) [FLAC|Lossless]<Рор>

в форуме Отечественная музыка, Размер: 502.49 МБ, Здоровье: 40%

Anonymous

0
2|5

52
0

21 дек 2014, 02:05

Anonymous Перейти к последнему сообщению

В этой теме нет новых непрочитанных сообщений. Скачать торрент Проверен Евгений Осин - Новое и лучшее. Star Hit Звездная коллекция (2010) [FLAC|Lossless]<Pop>

в форуме Отечественная музыка, Размер: 445.97 МБ, Здоровье: 100%

Anonymous

0
32|6

95
5

21 дек 2014, 02:32

Anonymous Перейти к последнему сообщению



Сейчас этот форум просматривают: нет зарегистрированных пользователей и гости: 3


Вы не можете начинать темы
Вы не можете отвечать на сообщения
Вы не можете редактировать свои сообщения
Вы не можете удалять свои сообщения
Вы не можете добавлять вложения

Перейти:  

!ВНИМАНИЕ!
 Ресурс не предоставляет электронные версии произведений, а занимается лишь коллекционированием и каталогизацией ссылок, присылаемых и публикуемых на форуме нашими читателями. Если вы являетесь правообладателем какого-либо представленного материала и не желаете чтобы ссылка на него находилась в нашем каталоге, свяжитесь с нами и мы незамедлительно удалим её. Файлы для обмена на трекере предоставлены пользователями сайта, и администрация не несёт ответственности за их содержание. Просьба не заливать файлы, защищенные авторскими правами, а также файлы нелегального содержания!