На всех торрентах на трекере установлена скидка на скачивание в размере 100 процентов(а).
 Возможность скачивания торрента НЕ зависит от ограничений при низком ратио, низком аплоаде, требуемом ратио или требуемом аплоаде.


Начать новую тему Ответить на тему
Статистика раздачи
Размер: 8.88 ГБ | Добавлен: 18 июл 2013, 06:34 | Скачали: 0
Сидеров: 0  [0 байт/сек]    Личеров: 0  [0 байт/сек]
Пред. тема | След. тема 

Автор
Сообщение

СообщениеДобавлено: 18 июл 2013, 06:34 

Название: Запретное царство
Оригинальное название: The Forbidden Kingdom
Год выхода: 2008
Жанр: Фэнтези, боевик, мелодрама, приключения
Режиссер: Роб Минкофф

В ролях: Джет Ли, Джеки Чан, Майкл Ангарано, Лю Ифэй, Колин Чоу, Хуана Коллиньон, Морган Бенуа, Ли Бинбин, Джек Пособец, Томас МакДонелл

О фильме:
Американский подросток Джейсон, основательно помешанный на кунг-фу во всех его проявлениях, от самого спорта до фильмов про него, делает удивительное открытие: в одном из магазинчиков в китайском квартале он находит легендарный посох великого воина Царя Обезьян…



Страна: США, Китай
Студия: Relativity Media, Casey Silver Productions
Продолжительность: 01:44:26
Перевод: Дублированный + Оригинал


Кодек: x264
Качество: BDRip 1080p (источник: HDCLUB / Blu-ray Remux / 1080p)
Видео: 1920х800 (2.40:1), 9623 Kbps, 23.976 fps, 0.261 bit/pixel
Аудио #1: 48.0 kHz, AC3 Dolby Digital, 3/2 (L,C,R,l,r) + LFE ch, 640 kbps [Дубляж]
Аудио #2: 48.0 kHz, AC3 Dolby Digital, 3/2 (L,C,R,l,r) + LFE ch, 640 kbps [Английский]
Субтитры: Русские, английские


Отдельно в папке:
Аудио #3: 48.0 kHz, AC3 Dolby Digital, 3/2 (L,C,R,l,r) + LFE ch, 640 kbps [Многоголосый, С.Р.И.]
Аудио #4: 48.0 kHz, AC3 Dolby Digital, 3/2 (L,C,R,l,r) + LFE ch, 640 kbps [Авторский, Ю. Немахов]

Семпл



x264 [info]: frame I:1389 Avg QP:17.89 size:272911
x264 [info]: frame P:50096 Avg QP:18.90 size: 75177
x264 [info]: frame B:98755 Avg QP:21.79 size: 34299
General
Unique ID : 235019108042992453129948622015594230478 (0xB0CF08A50A5CB0C8B8EF056BB41FF2CE)
Complete name : E:The.Forbidden.Kingdom.2008.x264.BDRip.1080pThe.Forbidden.Kingdom.2008.x264.BDRip.1080p.mkv
Format : Matroska
Format version : Version 4 / Version 2
File size : 7.95 GiB
Duration : 1h 44mn
Overall bit rate : 10.9 Mbps
Encoded date : UTC 2013-07-18 00:01:35
Writing application : mkvmerge v6.2.0 ('Promised Land') built on Apr 28 2013 12:22:01
Writing library : libebml v1.3.0 + libmatroska v1.4.0

Video
ID : 1
Format : AVC
Format/Info : Advanced Video Codec
Format profile : High@L4.1
Format settings, CABAC : Yes
Format settings, ReFrames : 5 frames
Codec ID : V_MPEG4/ISO/AVC
Duration : 1h 44mn
Bit rate : 9 623 Kbps
Width : 1 920 pixels
Height : 800 pixels
Display aspect ratio : 2.40:1
Frame rate mode : Constant
Frame rate : 23.976 fps
Color space : YUV
Chroma subsampling : 4:2:0
Bit depth : 8 bits
Scan type : Progressive
Bits/(Pixel*Frame) : 0.261
Stream size : 6.86 GiB (86%)
Writing library : x264 core 133 r2334 a3ac64b
Encoding settings : cabac=1 / ref=5 / deblock=1:-2:-2 / analyse=0x3:0x133 / me=tesa / subme=11 / psy=1 / psy_rd=1.00:0.04 / mixed_ref=1 / me_range=32 / chroma_me=1 / trellis=2 / 8x8dct=1 / cqm=0 / deadzone=21,11 / fast_pskip=0 / chroma_qp_offset=-3 / threads=12 / lookahead_threads=1 / sliced_threads=0 / nr=0 / decimate=0 / interlaced=0 / bluray_compat=0 / constrained_intra=0 / bframes=4 / b_pyramid=2 / b_adapt=2 / b_bias=0 / direct=3 / weightb=1 / open_gop=0 / weightp=2 / keyint=240 / keyint_min=23 / scenecut=40 / intra_refresh=0 / rc=2pass / mbtree=0 / bitrate=9623 / ratetol=1.0 / qcomp=0.60 / qpmin=0 / qpmax=69 / qpstep=4 / cplxblur=20.0 / qblur=0.5 / ip_ratio=1.40 / pb_ratio=1.30 / aq=1:1.00
Language : English
Default : Yes
Forced : No

Audio #1
ID : 2
Format : AC-3
Format/Info : Audio Coding 3
Mode extension : CM (complete main)
Format settings, Endianness : Big
Codec ID : A_AC3
Duration : 1h 44mn
Bit rate mode : Constant
Bit rate : 640 Kbps
Channel(s) : 6 channels
Channel positions : Front: L C R, Side: L R, LFE
Sampling rate : 48.0 KHz
Bit depth : 16 bits
Compression mode : Lossy
Stream size : 478 MiB (6%)
Title : AC3 5.1ch 640 kbps - Дубляж
Language : Russian
Default : Yes
Forced : No

Audio #2
ID : 3
Format : AC-3
Format/Info : Audio Coding 3
Mode extension : CM (complete main)
Format settings, Endianness : Big
Codec ID : A_AC3
Duration : 1h 44mn
Bit rate mode : Constant
Bit rate : 640 Kbps
Channel(s) : 6 channels
Channel positions : Front: L C R, Side: L R, LFE
Sampling rate : 48.0 KHz
Bit depth : 16 bits
Compression mode : Lossy
Stream size : 478 MiB (6%)
Title : AC3 5.1ch 640 kbps - Английский
Language : English
Default : No
Forced : No

Text #1
ID : 4
Format : UTF-8
Codec ID : S_TEXT/UTF8
Codec ID/Info : UTF-8 Plain Text
Title : Русские
Language : Russian
Default : No
Forced : No

Text #2
ID : 5
Format : UTF-8
Codec ID : S_TEXT/UTF8
Codec ID/Info : UTF-8 Plain Text
Title : Английские
Language : English
Default : No
Forced : No

Menu
00:00:00.000 : en:Opening
00:08:36.432 : en:Discoveries
00:15:04.903 : en:The Monkey King
00:19:13.152 : en:Escape
00:27:29.856 : en:Jet And Jackie
00:36:53.585 : en:Two Tigers
00:45:04.660 : en:Don't Forget
00:50:27.524 : en:The Monastary
00:54:06.952 : en:Combat
00:59:50.670 : en:Monkey King's Turn
01:04:47.258 : en:Back In the USA
01:09:44.597 : en:Credits
01:14:07.651 : en:"What's wrong?"
01:21:14.536 : en:On the Job
01:28:23.423 : en:End of Shift
01:32:19.158 : en:Home
загрузка...
Правила, инструкции, FAQ!!!
Торрент  Добавлен [18 июл 2013, 06:34] Скачать торрент
Скачать торрент
[ Размер 23.01 КБ / Просмотров 7 ]

Статус  
 
Размер  8.88 ГБ
Приватный: Нет (DHT включён)
.torrent скачан  0
Как залить торрент? | Как скачать Torrent? | Как смотреть и слушать онлайн?  


     Отправить личное сообщение
   
Страница 1 из 1
Показать сообщения за:  Поле сортировки  
Начать новую тему Ответить на тему

   Похожие торренты   Автор   Ответы   Просмотры   Последнее сообщение 
В этой теме нет новых непрочитанных сообщений. Скачать торрент Запретное царство / The Forbidden Kingdom (Роб Минкофф / Rob Minkoff) [2008, фэнтези, боевик, мелодрама, приключения, BDRip] Dub

в форуме Фантастика, Фэнтези, Размер: 1.46 ГБ, Здоровье: 100%

Anonymous

0
56|19

68
0

12 фев 2014, 11:45

Anonymous Перейти к последнему сообщению

В этой теме нет новых непрочитанных сообщений. Скачать торрент Царство небесное / Kingdom of Heaven (Ридли Скотт / Ridley Scott) [2005, США, Испания, Приключения, история, боевик, BDRip-AVC] [Театральная версия | Theatrical Cut] DUB Sub + original eng

в форуме Исторические, Размер: 4.37 ГБ, Здоровье: 100%

Anonymous

0
20|7

97
0

10 фев 2014, 13:04

Anonymous Перейти к последнему сообщению

В этой теме нет новых непрочитанных сообщений. Скачать торрент Тор 2: Царство тьмы / Thor: The Dark World (2013) BDRip 1080p | Лицензия

в форуме 720p | 1080p, Размер: 6.15 ГБ, Здоровье: 0%

Anonymous

0
0|0

138
0

14 фев 2014, 17:19

Anonymous Перейти к последнему сообщению

В этой теме нет новых непрочитанных сообщений. Скачать торрент Тор 2: Царство тьмы / Thor: The Dark World (2013) BDRip 1080p | Чистый звук

в форуме 720p | 1080p, Размер: 7.95 ГБ, Здоровье: 0%

Anonymous

0
0|0

55
0

06 фев 2014, 10:11

Anonymous Перейти к последнему сообщению

В этой теме нет новых непрочитанных сообщений. Скачать торрент Проверен Тор 2: Царство тьмы / Thor: The Dark World (2013) BDRip [1080p] 3D [Вертикальная анаморфная стереопара]

в форуме HD-Video в 3D, Размер: 7.77 ГБ, Здоровье: 100%

Anonymous

0
37|1

261
1

12 июл 2015, 12:34

Anonymous Перейти к последнему сообщению



Сейчас этот форум просматривают: нет зарегистрированных пользователей и гости: 3


Вы не можете начинать темы
Вы не можете отвечать на сообщения
Вы не можете редактировать свои сообщения
Вы не можете удалять свои сообщения
Вы не можете добавлять вложения

Перейти:  

!ВНИМАНИЕ!
 Ресурс не предоставляет электронные версии произведений, а занимается лишь коллекционированием и каталогизацией ссылок, присылаемых и публикуемых на форуме нашими читателями. Если вы являетесь правообладателем какого-либо представленного материала и не желаете чтобы ссылка на него находилась в нашем каталоге, свяжитесь с нами и мы незамедлительно удалим её. Файлы для обмена на трекере предоставлены пользователями сайта, и администрация не несёт ответственности за их содержание. Просьба не заливать файлы, защищенные авторскими правами, а также файлы нелегального содержания!