На всех торрентах на трекере установлена скидка на скачивание в размере 100 процентов(а).
 Возможность скачивания торрента НЕ зависит от ограничений при низком ратио, низком аплоаде, требуемом ратио или требуемом аплоаде.


Начать новую тему Ответить на тему
Статистика раздачи
Размер: 7.76 ГБ | Добавлен: 17 июл 2013, 22:06 | Скачали: 1
Сидеров: 0  [0 байт/сек]    Личеров: 0  [0 байт/сек]
Пред. тема | След. тема 

Автор
Сообщение

СообщениеДобавлено: 17 июл 2013, 22:06 

Название: Особо опасен
Оригинальное название: Wanted
Год выхода: 2008
Жанр: боевик, триллер, драма
Режиссер: Тимур Бекмамбетов

В ролях: Джеймс МакЭвой, Морган Фриман, Анджелина Джоли, Теренс Стэмп, Томас Кречманн, Common, Кристен Хагер, Марк Уоррен, Дэвид О`Хара, Константин Хабенский, Дато Бахтадзе, Крис Прэтт, Лорна Скотт, София Хак, Брэд Калькатерра, Брайан Каспе, Марк О`Нил, Бриджет МакМанус, Скарлетт Спердуто, Боб Эри, Дэниэл Боутон

О фильме:
Уэсли Гибсон — зануда и нытик, целыми днями торчащий в офисе. Босс его унижает, подружка ему изменяет. Его жизнь катится в никуда! Обнаружив, что отец, бросивший его в раннем детстве, зверски убит, Уэс оказывается втянут в тайное общество киллеров под названием «Братство». За его обучение берется опытная наставница Фокс, и этот когда-то прикованный к офисному креслу хлюпик развивает молниеносную реакцию и сверхчеловеческую скорость. Однако уже на первом задании Уэсли понимает: есть вещи посложнее, чем вершить судьбы других людей. Это — набраться храбрости и стать хозяином собственной жизни.



Выпущено: США, Германия
Студия: Universal Pictures
Продолжительность: 01:55:13
Перевод: Дублированный + Оригинал


Кодек: x264
Качество: BDRip (источник: Blu-ray Disc)
Видео: 1920x816 (2,35:1), 23.976 fps, 9019 kbps
Аудио #1: AC-3, 6 ch, 448 kbps (Rus)
Аудио #2: AC-3, 6 ch, 640 kbps (Eng)
Субтитры: Русские (Forced), Русские, Английские
Скачать: семпл

Общее
Уникальный идентификатор : 171750728722631215329096328230057950711 (0x8135FCB551EEF91DAEC74AB40D563DF7)
Полное имя : E:Wanted.2008.BDRip.1080p.Rus.Eng.mkv
Формат : Matroska
Версия формата : Version 4 / Version 2
Размер файла : 7,76 Гбайт
Продолжительность : 1 ч. 49 м.
Общий поток : 10,1 Мбит/сек
Название фильма : Особо опасен / Wanted (2008)
Дата кодирования : UTC 2013-07-17 12:47:25
Программа кодирования : mkvmerge v6.3.0 ('You can't stop me!') built on Jun 28 2013 20:09:41
Библиотека кодирования : libebml v1.3.0 + libmatroska v1.4.0
Attachment : Yes

Видео
Идентификатор : 1
Формат : AVC
Формат/Информация : Advanced Video Codec
Профиль формата : High@L4.1
Параметр CABAC формата : Да
Параметр ReFrames формата : 5 кадров
Идентификатор кодека : V_MPEG4/ISO/AVC
Продолжительность : 1 ч. 49 м.
Битрейт : 9019 Кбит/сек
Ширина : 1920 пикселей
Высота : 816 пикселей
Соотношение сторон : 2,35:1
Режим частоты кадров : Постоянный
Частота кадров : 23,976 кадра/сек
Цветовое пространство : YUV
Субдискретизация насыщенности : 4:2:0
Битовая глубина : 8 бит
Тип развёртки : Прогрессивная
Бит/(Пиксели*Кадры) : 0.240
Размер потока : 6,77 Гбайт (87%)
Заголовок : Release by N1NT3NDO
Библиотека кодирования : x264 core 133 r2334 a3ac64b
Настройки программы : cabac=1 / ref=5 / deblock=1:-3:-3 / analyse=0x3:0x133 / me=umh / subme=11 / psy=1 / psy_rd=1.00:0.00 / mixed_ref=1 / me_range=32 / chroma_me=1 / trellis=2 / 8x8dct=1 / cqm=0 / deadzone=21,11 / fast_pskip=0 / chroma_qp_offset=-2 / threads=12 / lookahead_threads=1 / sliced_threads=0 / nr=0 / decimate=0 / interlaced=0 / bluray_compat=0 / constrained_intra=0 / bframes=5 / b_pyramid=2 / b_adapt=2 / b_bias=0 / direct=3 / weightb=1 / open_gop=0 / weightp=2 / keyint=240 / keyint_min=23 / scenecut=40 / intra_refresh=0 / rc=2pass / mbtree=0 / bitrate=9019 / ratetol=1.0 / qcomp=0.60 / qpmin=0 / qpmax=69 / qpstep=4 / cplxblur=20.0 / qblur=0.5 / ip_ratio=1.40 / pb_ratio=1.30 / aq=1:0.70
Язык : English
Default : Да
Forced : Нет

Аудио #1
Идентификатор : 2
Формат : AC-3
Формат/Информация : Audio Coding 3
Расширение режима : CM (complete main)
Параметр Endianness формата : Big
Идентификатор кодека : A_AC3
Продолжительность : 1 ч. 49 м.
Вид битрейта : Постоянный
Битрейт : 448 Кбит/сек
Каналы : 6 каналов
Расположение каналов : Front: L C R, Side: L R, LFE
Частота : 48,0 КГц
Битовая глубина : 16 бит
Метод сжатия : С потерями
Размер потока : 352 Мбайт (4%)
Заголовок : Rus
Язык : Russian
Default : Да
Forced : Нет

Аудио #2
Идентификатор : 3
Формат : AC-3
Формат/Информация : Audio Coding 3
Расширение режима : CM (complete main)
Параметр Endianness формата : Big
Идентификатор кодека : A_AC3
Продолжительность : 1 ч. 49 м.
Вид битрейта : Постоянный
Битрейт : 640 Кбит/сек
Каналы : 6 каналов
Расположение каналов : Front: L C R, Side: L R, LFE
Частота : 48,0 КГц
Битовая глубина : 16 бит
Метод сжатия : С потерями
Размер потока : 503 Мбайт (6%)
Заголовок : Eng
Язык : English
Default : Нет
Forced : Нет

Текст #1
Идентификатор : 4
Формат : UTF-8
Идентификатор кодека : S_TEXT/UTF8
Идентификатор кодека/Информация : UTF-8 Plain Text
Заголовок : Rus (Forced)
Язык : Russian
Default : Нет
Forced : Нет

Текст #2
Идентификатор : 5
Формат : UTF-8
Идентификатор кодека : S_TEXT/UTF8
Идентификатор кодека/Информация : UTF-8 Plain Text
Заголовок : Rus
Язык : Russian
Default : Нет
Forced : Нет

Текст #3
Идентификатор : 6
Формат : UTF-8
Идентификатор кодека : S_TEXT/UTF8
Идентификатор кодека/Информация : UTF-8 Plain Text
Заголовок : Eng
Язык : English
Default : Нет
Forced : Нет

Меню #1
00:00:00.000 : en:The Fraternity
00:07:01.921 : en:Stressed Out
00:12:58.235 : en:Greatest Assassin
00:20:58.590 : en:One of Us
00:26:25.834 : en:I'm the Man
00:32:11.512 : en:In the Factory
00:37:30.373 : en:Feeling Good
00:42:04.688 : en:One By One
00:45:22.136 : en:Who Are You?
00:51:52.901 : en:Loom of Fate
00:56:23.838 : en:First Target
01:00:58.780 : en:Second Target
01:04:00.211 : en:A Message
01:09:42.636 : en:Meeting the Maker
01:13:32.032 : en:Off Track
01:20:23.777 : en:Perfet Weapon
01:27:10.683 : en:Kill Him
01:33:24.557 : en:Follow the Code
01:39:26.460 : en:Taking Control
01:42:22.052 : en:End Titles

Меню #2
00:00:00.000 : en:The Fraternity
00:07:01.921 : en:Stressed Out
00:12:58.235 : en:Greatest Assassin
00:20:58.590 : en:One of Us
00:26:25.834 : en:I'm the Man
00:32:11.512 : en:In the Factory
00:37:30.373 : en:Feeling Good
00:42:04.688 : en:One By One
00:45:22.136 : en:Who Are You?
00:51:52.901 : en:Loom of Fate
00:56:23.838 : en:First Target
01:00:58.780 : en:Second Target
01:04:00.211 : en:A Message
01:09:42.636 : en:Meeting the Maker
01:13:32.032 : en:Off Track
01:20:23.777 : en:Perfet Weapon
01:27:10.683 : en:Kill Him
01:33:24.557 : en:Follow the Code
01:39:26.460 : en:Taking Control
01:42:22.052 : en:End Titles
x264 [info]: frame I:1284 Avg QP:17.29 size:175430
x264 [info]: frame P:47096 Avg QP:20.16 size: 70815
x264 [info]: frame B:109695 Avg QP:21.99 size: 35168
загрузка...
Правила, инструкции, FAQ!!!
Торрент  Добавлен [17 июл 2013, 22:06] Скачать торрент
Скачать торрент
[ Размер 19.91 КБ / Просмотров 11 ]

Статус  
 
Размер  7.76 ГБ
Приватный: Нет (DHT включён)
.torrent скачан  1
Как залить торрент? | Как скачать Torrent? | Как смотреть и слушать онлайн?  


     Отправить личное сообщение
   
Страница 1 из 1
Показать сообщения за:  Поле сортировки  
Начать новую тему Ответить на тему

   Похожие торренты   Автор   Ответы   Просмотры   Последнее сообщение 
В этой теме нет новых непрочитанных сообщений. Скачать торрент Проверен [iPod] Особо опасен / Wanted (Тимур Бекмамбетов) [2008 г., Боевик, триллер, BDRip]

в форуме Фильмы для iPod, iPhone, iPad, Размер: 456.38 МБ, Здоровье: 100%

Anonymous

0
1|0

23
1

14 май 2015, 00:24

Anonymous Перейти к последнему сообщению

В этой теме нет новых непрочитанных сообщений. Скачать торрент Проверен Особо опасен (Wanted) (2008) [MP4|320x240] <DVDRip>

в форуме Видео для смартфонов и КПК, Размер: 256.34 МБ, Здоровье: 100%

Anonymous

0
1|1

60
0

25 окт 2014, 23:12

Anonymous Перейти к последнему сообщению

В этой теме нет новых непрочитанных сообщений. Скачать торрент Проверен Джон Ле Карре - Особо опасен [2010, FB2, RUS]

в форуме Детективы и Боевики, Размер: 617.94 КБ, Здоровье: 100%

Anonymous

0
1|0

2
1

08 сен 2016, 22:04

Anonymous Перейти к последнему сообщению

В этой теме нет новых непрочитанных сообщений. Скачать торрент Проверен Марина Серова | Особо красив и опасен (2015) [FB2]

в форуме Детективы и Боевики, Размер: 1 МБ, Здоровье: 100%

Гость

0
7|3

35
0

21 июн 2015, 01:11

Гость Перейти к последнему сообщению

В этой теме нет новых непрочитанных сообщений. Скачать торрент Проверен Ле Карре Джон - Особо опасен [Геннадий Смирнов, 2015 г., 128 kbps, MP3]

в форуме Детектив и Боевики, Размер: 655.85 МБ, Здоровье: 0%

Anonymous

0
0|0

0
0

20 ноя 2016, 10:43

Anonymous Перейти к последнему сообщению



Сейчас этот форум просматривают: нет зарегистрированных пользователей и гости: 2


Вы не можете начинать темы
Вы не можете отвечать на сообщения
Вы не можете редактировать свои сообщения
Вы не можете удалять свои сообщения
Вы не можете добавлять вложения

Перейти:  

!ВНИМАНИЕ!
 Ресурс не предоставляет электронные версии произведений, а занимается лишь коллекционированием и каталогизацией ссылок, присылаемых и публикуемых на форуме нашими читателями. Если вы являетесь правообладателем какого-либо представленного материала и не желаете чтобы ссылка на него находилась в нашем каталоге, свяжитесь с нами и мы незамедлительно удалим её. Файлы для обмена на трекере предоставлены пользователями сайта, и администрация не несёт ответственности за их содержание. Просьба не заливать файлы, защищенные авторскими правами, а также файлы нелегального содержания!