На всех торрентах на трекере установлена скидка на скачивание в размере 100 процентов(а).
 Возможность скачивания торрента НЕ зависит от ограничений при низком ратио, низком аплоаде, требуемом ратио или требуемом аплоаде.


Начать новую тему Ответить на тему
Статистика раздачи
Размер: 7.01 ГБ | Добавлен: 17 июл 2013, 17:20 | Скачали: 0
Сидеров: 0  [0 байт/сек]    Личеров: 2  [0 байт/сек]
Пред. тема | След. тема 

Автор
Сообщение

СообщениеДобавлено: 17 июл 2013, 17:20 

Название: Вышибалы (Крутые парни)
Оригинальное название: Knockaround Guys
Год выпуска: 2001
Жанр: Триллер, драма, криминал
Режиссер: Брайан Коппельман, Дэвид Левиен

В ролях: Бэрри Пеппер, Эндрю Дэволи, Сет Грин, Вин Дизель, Джон Малкович, Артур Дж. Наскарелла, Том Нунан, Николас Паско, Шоун Дойл, Кевин Гейдж

О фильме: Для сына босса мафии ошибки и чувства непростительная роскошь. Мэтти пришлось дорого заплатить чтобы понять это. После долгих поисков "законной" работы он обращается к отцу, и тот дает ему шанс... Но друг детства Мэтти, кокаинист Марблс, теряет сумку с деньгами. Деньги попадают к двум обкуренным тинэйджерам, живущим в захолустном западном городишке. Дело-табак! На помощь Мэтти приходят его старинные друзья, один из которых, Тэйлор - разрабатывает план активных действий по возвращению утраченных денежных средств. Но городок контролирует нечистый на руку шериф и его помощник, и шансы друзей вернуть деньги становятся невелики. Дядя Тедди приезжает в город, чтобы "устаканить" ситуацию и объяснить Мэтти раз и навсегда, что значит быть "членом семьи".


Страна: США
Студия: Lawrence Bender Productions, New Line Cinema
Продолжительность: 01:31:36
Перевод: Профессиональный многоголосый


Кодек: x264
Качество: BDRip 1080p
Видео: MPEG-4 AVC, 9000 Кбит/c, 1920x802, 23.976 кадр/c
Аудио #1: Русский (AC3, 6 ch, 448 Кбит/c)
Аудио #2: Английский (DTS, 6 ch, 1510 Кбит/c)
Субтитры: Русские, английские

Семпл




Общее
Уникальный идентификатор : 206130413162995322516740474356111465523 (0x9B13460524372655A54939812F1F5C33)
Полное имя : D:Mои раздачиVyshibaly.2001.BDRip.(1080p)-MediaClub.mkv
Формат : Matroska
Версия формата : Version 2
Размер файла : 7,01 Гбайт
Продолжительность : 1 ч. 31 м.
Общий поток : 11,0 Мбит/сек
Название фильма : Вышибалы (MediaClub-kaspr)
Дата кодирования : UTC 2013-07-16 13:56:52
Программа кодирования : mkvmerge v5.7.0 ('The Whirlwind') built on Aug 7 2012 14:11:40
Библиотека кодирования : libebml v1.2.3 + libmatroska v1.3.0

Видео
Идентификатор : 1
Формат : AVC
Формат/Информация : Advanced Video Codec
Профиль формата : High@L4.1
Параметр CABAC формата : Да
Параметр ReFrames формата : 4 кадра
Идентификатор кодека : V_MPEG4/ISO/AVC
Продолжительность : 1 ч. 31 м.
Битрейт : 9000 Кбит/сек
Ширина : 1920 пикселей
Высота : 802 пикселя
Соотношение сторон : 2,40:1
Режим частоты кадров : Постоянный
Частота кадров : 23,976 кадра/сек
Цветовое пространство : YUV
Субдискретизация насыщенности : 4:2:0
Битовая глубина : 8 бит
Тип развёртки : Прогрессивная
Бит/(Пиксели*Кадры) : 0.244
Размер потока : 5,62 Гбайт (80%)
Заголовок : Вышибалы (MediaClub-kaspr)
Библиотека кодирования : x264 core 130 r2273 b3065e6
Настройки программы : cabac=1 / ref=4 / deblock=1:-3:-3 / analyse=0x3:0x133 / me=umh / subme=11 / psy=1 / psy_rd=1.00:0.20 / mixed_ref=1 / me_range=32 / chroma_me=1 / trellis=2 / 8x8dct=1 / cqm=0 / deadzone=21,11 / fast_pskip=0 / chroma_qp_offset=-3 / threads=12 / lookahead_threads=2 / sliced_threads=0 / nr=0 / decimate=0 / interlaced=0 / bluray_compat=0 / constrained_intra=0 / bframes=8 / b_pyramid=2 / b_adapt=2 / b_bias=0 / direct=3 / weightb=1 / open_gop=0 / weightp=2 / keyint=250 / keyint_min=23 / scenecut=40 / intra_refresh=0 / rc=2pass / mbtree=0 / bitrate=9000 / ratetol=1.0 / qcomp=0.60 / qpmin=0 / qpmax=69 / qpstep=4 / cplxblur=20.0 / qblur=0.5 / ip_ratio=1.40 / pb_ratio=1.30 / aq=1:1.00
Default : Да
Forced : Да

Аудио #1
Идентификатор : 2
Формат : AC-3
Формат/Информация : Audio Coding 3
Расширение режима : CM (complete main)
Параметр Endianness формата : Big
Идентификатор кодека : A_AC3
Продолжительность : 1 ч. 31 м.
Вид битрейта : Постоянный
Битрейт : 448 Кбит/сек
Каналы : 6 каналов
Расположение каналов : Front: L C R, Side: L R, LFE
Частота : 48,0 КГц
Битовая глубина : 16 бит
Метод сжатия : С потерями
Размер потока : 294 Мбайт (4%)
Заголовок : ПМ
Язык : Russian
Default : Да
Forced : Да

Аудио #2
Идентификатор : 3
Формат : DTS
Формат/Информация : Digital Theater Systems
Идентификатор кодека : A_DTS
Продолжительность : 1 ч. 31 м.
Вид битрейта : Постоянный
Битрейт : 1510 Кбит/сек
Каналы : 6 каналов
Расположение каналов : Front: L C R, Side: L R, LFE
Частота : 48,0 КГц
Битовая глубина : 24 бит
Метод сжатия : С потерями
Размер потока : 989 Мбайт (14%)
Заголовок : Оригинал
Язык : English
Default : Нет
Forced : Нет

Текст #1
Идентификатор : 4
Формат : UTF-8
Идентификатор кодека : S_TEXT/UTF8
Идентификатор кодека/Информация : UTF-8 Plain Text
Язык : Russian
Default : Нет
Forced : Нет

Текст #2
Идентификатор : 5
Формат : UTF-8
Идентификатор кодека : S_TEXT/UTF8
Идентификатор кодека/Информация : UTF-8 Plain Text
Язык : English
Default : Нет
Forced : Нет

Меню
00:00:00.000 : en:Chapter 01
00:05:50.808 : en:Chapter 02
00:09:27.192 : en:Chapter 03
00:12:33.086 : en:Chapter 04
00:16:00.167 : en:Chapter 05
00:20:17.508 : en:Chapter 06
00:24:56.869 : en:Chapter 07
00:30:25.073 : en:Chapter 08
00:34:46.876 : en:Chapter 09
00:39:20.817 : en:Chapter 10
00:43:58.511 : en:Chapter 11
00:48:36.622 : en:Chapter 12
00:52:17.843 : en:Chapter 13
00:55:38.877 : en:Chapter 14
01:01:34.232 : en:Chapter 15
01:05:22.377 : en:Chapter 16
01:10:06.327 : en:Chapter 17
01:15:02.372 : en:Chapter 18
01:18:10.144 : en:Chapter 19
01:23:14.531 : en:Chapter 20
01:27:21.194 : en:Chapter 21


Релиз:
загрузка...
Правила, инструкции, FAQ!!!
Торрент  Добавлен [17 июл 2013, 17:20] Скачать торрент
Скачать торрент
[ Размер 18.11 КБ / Просмотров 7 ]

Статус  
 
Размер  7.01 ГБ
Приватный: Нет (DHT включён)
.torrent скачан  0
Как залить торрент? | Как скачать Torrent? | Как смотреть и слушать онлайн?  


     Отправить личное сообщение
   
Страница 1 из 1
Показать сообщения за:  Поле сортировки  
Начать новую тему Ответить на тему

   Похожие торренты   Автор   Ответы   Просмотры   Последнее сообщение 
В этой теме нет новых непрочитанных сообщений. Скачать торрент Проверен Славные парни / The Nice Guys (2016) BDRip 1080p | iTunes

в форуме 720p | 1080p, Размер: 9.06 ГБ, Здоровье: 20%

Гость

0
44|211

229
1

07 авг 2016, 09:07

Гость Перейти к последнему сообщению

В этой теме нет новых непрочитанных сообщений. Скачать торрент Проверен Славные парни / The Nice Guys (2016) BDRip 720p | iTunes

в форуме 720p | 1080p, Размер: 5.78 ГБ, Здоровье: 32%

Гость

0
74|227

233
34

07 авг 2016, 09:11

Гость Перейти к последнему сообщению

В этой теме нет новых непрочитанных сообщений. Скачать торрент Реальные парни / Stand Up Guys (2012) BDRip 720p | Лицензия

в форуме 720p | 1080p, Размер: 1.97 ГБ, Здоровье: 100%

Anonymous

0
35|0

169
19

17 фев 2014, 22:15

Anonymous Перейти к последнему сообщению

В этой теме нет новых непрочитанных сообщений. Скачать торрент Али / Ali (2001) BDRip 1080p

в форуме 720p | 1080p, Размер: 15.76 ГБ, Здоровье: 100%

Anonymous

0
9|0

24
10

20 фев 2014, 22:22

Anonymous Перейти к последнему сообщению

В этой теме нет новых непрочитанных сообщений. Скачать торрент Проверен Копы в глубоком запасе / The Other Guys (2010) BDRip 720p | Расширенная версия

в форуме 720p | 1080p, Размер: 3.84 ГБ, Здоровье: 100%

Anonymous

0
23|4

49
695

01 авг 2014, 22:06

Anonymous Перейти к последнему сообщению



Сейчас этот форум просматривают: нет зарегистрированных пользователей и гости: 3


Вы не можете начинать темы
Вы не можете отвечать на сообщения
Вы не можете редактировать свои сообщения
Вы не можете удалять свои сообщения
Вы не можете добавлять вложения

Перейти:  

!ВНИМАНИЕ!
 Ресурс не предоставляет электронные версии произведений, а занимается лишь коллекционированием и каталогизацией ссылок, присылаемых и публикуемых на форуме нашими читателями. Если вы являетесь правообладателем какого-либо представленного материала и не желаете чтобы ссылка на него находилась в нашем каталоге, свяжитесь с нами и мы незамедлительно удалим её. Файлы для обмена на трекере предоставлены пользователями сайта, и администрация не несёт ответственности за их содержание. Просьба не заливать файлы, защищенные авторскими правами, а также файлы нелегального содержания!