На всех торрентах на трекере установлена скидка на скачивание в размере 100 процентов(а).
 Возможность скачивания торрента НЕ зависит от ограничений при низком ратио, низком аплоаде, требуемом ратио или требуемом аплоаде.


Начать новую тему Ответить на тему
Статистика раздачи
Размер: 2.19 ГБ | Добавлен: 15 июл 2013, 21:38 | Скачали: 0
Сидеров: 2  [0 байт/сек]    Личеров: 1  [0 байт/сек]
Пред. тема | След. тема 

Автор
Сообщение

СообщениеДобавлено: 15 июл 2013, 21:38 

Год выпуска: 2013
Производство: США / TriStar Pictures, Ghost House Pictures, FilmDistrict
Жанр: Ужасы
Продолжительность: 01:31:18
Перевод: Авторский (одноголосый закадровый) А.Карповский (ненормативная лексика)
Субтитры: Русские, английские


Режиссер: Федерико Альварес / Federico Alvarez

В ролях: Джейн Леви, Шайло Фернандес, Лу Тэйлор Пуччи, Джессика Лукас, Элизабет Блэкмор, Феникс Коннолли, Джим МакЛарти, Сиан Дэвис, Стефен Баттерворф, Карл Виллетц

О фильме: Главный герой отвозит свою младшую сестру в лесной домик для того, чтобы помочь ей избавиться от наркотической зависимости. Оказавшись без «дури», девушка буквально сходит с ума, из-за чего становится невозможно определить, почему она ведет себя именно так: из-за ломки или же благодаря деятельности обитателей «Книги мертвых». Особенно после того, как один из ее приятелей прочел вслух отрывок из этой самой книги.






Качество: BDRip-AVC [Evil.Dead.2013.1080p.BluRay.AVC.DTS-HD.MA.5.1-PublicHD]
Формат: MKV
Видео: H.264, 1108x464 (2.40:1), 23.976 fps, 2531 Кbps, 0.205 bit/pixel
Аудио#1: 48 kHz, AC3 Dolby Digital, 3/2 (L,C,R,l,r) + LFE ch, 448.00 kbps | RUS
Аудио#2: 48 kHz, AC3 Dolby Digital, 3/2 (L,C,R,l,r) + LFE ch, 448.00 kbps | ENG


Автор рипа:


Общее
Уникальный идентификатор : 174304339803937834696647208342996315057 (0x8321CB7481C861C2A1BBC65E3216EBB1)
Полное имя : Zloveshwie.Mertvecy.Chernaja.Kniga.2013.AVO.BDRip.x264.potroks.mkv
Формат : Matroska
Версия формата : Version 4 / Version 2
Размер файла : 2,19 Гбайт
Продолжительность : 1 ч. 31 м.
Общий поток : 3428 Кбит/сек
Название фильма : -=POTROKS=-
Дата кодирования : UTC 2013-07-15 15:00:38
Программа кодирования : mkvmerge v5.9.0 ('On The Loose') built on Dec 15 2012 16:39:58
Библиотека кодирования : libebml v1.3.0 + libmatroska v1.4.0

Видео
Идентификатор : 1
Формат : AVC
Формат/Информация : Advanced Video Codec
Профиль формата : High@L4.1
Параметр CABAC формата : Да
Параметр ReFrames формата : 15 кадров
Идентификатор кодека : V_MPEG4/ISO/AVC
Продолжительность : 1 ч. 31 м.
Битрейт : 2531 Кбит/сек
Ширина : 1108 пикселей
Высота : 464 пикселя
Соотношение сторон : 2,40:1
Режим частоты кадров : Постоянный
Частота кадров : 23,976 кадра/сек
Цветовое пространство : YUV
Субдискретизация насыщенности : 4:2:0
Битовая глубина : 8 бит
Тип развёртки : Прогрессивная
Бит/(Пиксели*Кадры) : 0.205
Размер потока : 1,57 Гбайт (72%)
Заголовок : Evil Dead
Библиотека кодирования : x264 core 125 r2208 d9d2288
Настройки программы : cabac=1 / ref=15 / deblock=1:-2:-2 / analyse=0x3:0x133 / me=umh / subme=11 / psy=1 / psy_rd=1.05:0.05 / mixed_ref=1 / me_range=32 / chroma_me=1 / trellis=2 / 8x8dct=1 / cqm=0 / deadzone=21,11 / fast_pskip=0 / chroma_qp_offset=-3 / threads=9 / lookahead_threads=1 / sliced_threads=0 / nr=0 / decimate=1 / interlaced=0 / bluray_compat=0 / constrained_intra=0 / bframes=16 / b_pyramid=2 / b_adapt=2 / b_bias=0 / direct=3 / weightb=1 / open_gop=0 / weightp=2 / keyint=240 / keyint_min=23 / scenecut=40 / intra_refresh=0 / rc_lookahead=150 / rc=2pass / mbtree=1 / bitrate=2531 / ratetol=1.0 / qcomp=0.70 / qpmin=0 / qpmax=69 / qpstep=4 / cplxblur=20.0 / qblur=0.5 / vbv_maxrate=20000 / vbv_bufsize=25000 / nal_hrd=none / ip_ratio=1.35 / aq=1:0.70
Язык : English
Default : Да
Forced : Нет

Аудио #1
Идентификатор : 2
Формат : AC-3
Формат/Информация : Audio Coding 3
Расширение режима : CM (complete main)
Параметр Endianness формата : Big
Идентификатор кодека : A_AC3
Продолжительность : 1 ч. 31 м.
Вид битрейта : Постоянный
Битрейт : 448 Кбит/сек
Каналы : 6 каналов
Расположение каналов : Front: L C R, Side: L R, LFE
Частота : 48,0 КГц
Битовая глубина : 16 бит
Метод сжатия : С потерями
Размер потока : 293 Мбайт (13%)
Заголовок : AVO | DD 5.1 @ 448 kbps - А.Карповский
Язык : Russian
Default : Да
Forced : Да

Аудио #2
Идентификатор : 3
Формат : AC-3
Формат/Информация : Audio Coding 3
Расширение режима : CM (complete main)
Параметр Endianness формата : Big
Идентификатор кодека : A_AC3
Продолжительность : 1 ч. 31 м.
Вид битрейта : Постоянный
Битрейт : 448 Кбит/сек
Каналы : 6 каналов
Расположение каналов : Front: L C R, Side: L R, LFE
Частота : 48,0 КГц
Битовая глубина : 16 бит
Метод сжатия : С потерями
Размер потока : 293 Мбайт (13%)
Заголовок : Original | DD 5.1 @ 448 kbps
Язык : English
Default : Нет
Forced : Нет

Текст #1
Идентификатор : 4
Формат : UTF-8
Идентификатор кодека : S_TEXT/UTF8
Идентификатор кодека/Информация : UTF-8 Plain Text
Язык : English
Default : Нет
Forced : Нет

Текст #2
Идентификатор : 5
Формат : UTF-8
Идентификатор кодека : S_TEXT/UTF8
Идентификатор кодека/Информация : UTF-8 Plain Text
Язык : Russian
Default : Нет
Forced : Нет
x264 [info]: frame I:839 Avg QP:16.41 size: 64298
x264 [info]: frame P:29267 Avg QP:18.09 size: 25460
x264 [info]: frame B:101245 Avg QP:20.26 size: 9221
x264 [info]: consecutive B-frames: 2.6% 2.9% 7.4% 22.6% 19.6% 28.4% 8.3% 4.3% 1.3% 0.6% 0.5% 1.0% 0.3% 0.1% 0.0% 0.1% 0.0%
x264 [info]: mb I I16..4: 17.4% 63.4% 19.2%
x264 [info]: mb P I16..4: 1.6% 9.0% 1.4% P16..4: 30.0% 32.1% 10.8% 2.2% 0.3% skip:12.5%
x264 [info]: mb B I16..4: 0.1% 1.3% 0.2% B16..8: 35.0% 18.3% 2.8% direct: 5.0% skip:37.2% L0:42.8% L1:47.1% BI:10.1%
x264 [info]: 8x8 transform intra:74.2% inter:62.9%
x264 [info]: direct mvs spatial:97.7% temporal:2.3%
x264 [info]: coded y,uvDC,uvAC intra: 80.2% 76.3% 54.2% inter: 24.8% 17.4% 3.9%
x264 [info]: i16 v,h,dc,p: 44% 12% 7% 37%
x264 [info]: i8 v,h,dc,ddl,ddr,vr,hd,vl,hu: 7% 7% 7% 10% 15% 14% 14% 12% 13%
x264 [info]: i4 v,h,dc,ddl,ddr,vr,hd,vl,hu: 7% 15% 7% 9% 14% 13% 12% 10% 12%
x264 [info]: i8c dc,h,v,p: 42% 23% 17% 18%
x264 [info]: Weighted P-Frames: Y:12.2% UV:6.0%
x264 [info]: ref P L0: 46.2% 8.4% 16.4% 6.7% 5.5% 3.7% 3.1% 1.8% 1.6% 1.3% 1.2% 1.1% 1.0% 0.9% 0.9% 0.2%
x264 [info]: ref B L0: 72.8% 11.2% 5.9% 2.6% 2.1% 1.4% 1.1% 0.7% 0.6% 0.5% 0.4% 0.4% 0.2% 0.1%
x264 [info]: ref B L1: 91.6% 8.4%
x264 [info]: kb/s:2530.11

x264 [total]: encoded 131351 frames, 5.10 fps, 2530.11 kb/s
TIME
------------------------------
Общее время кодирования: 10 hour 23 min 1 sec
Файл получился на: 1653.32 mb

загрузка...
Правила, инструкции, FAQ!!!
Торрент  Добавлен [15 июл 2013, 21:38] Скачать торрент
Скачать торрент
[ Размер 11.47 КБ / Просмотров 14 ]

Статус  
 
Размер  2.19 ГБ
Приватный: Нет (DHT включён)
.torrent скачан  0
Как залить торрент? | Как скачать Torrent? | Как смотреть и слушать онлайн?  


     Отправить личное сообщение
   
Страница 1 из 1
Показать сообщения за:  Поле сортировки  
Начать новую тему Ответить на тему

   Похожие торренты   Автор   Ответы   Просмотры   Последнее сообщение 
В этой теме нет новых непрочитанных сообщений. Скачать торрент Зловещие мертвецы: Черная книга / Evil Dead (2013) HDRip | D | Лицензия

в форуме Ужасы, Размер: 742.57 МБ, Здоровье: 100%

Anonymous

0
42|2

59
81

09 фев 2014, 23:07

Anonymous Перейти к последнему сообщению

В этой теме нет новых непрочитанных сообщений. Скачать торрент Проверен Ходячие мертвецы / The Walking Dead [S06] (2015) WEB-DLRip | LostFilm

в форуме Зарубежные сериалы, Размер: 12.31 ГБ, Здоровье: 25%

Гость

0
151|593

259
57

06 апр 2016, 19:21

Гость Перейти к последнему сообщению

В этой теме нет новых непрочитанных сообщений. Скачать торрент Черная книга / Zwartboek (2006) BDRip 720p

в форуме 720p | 1080p, Размер: 7.79 ГБ, Здоровье: 100%

Anonymous

0
8|0

48
617

26 дек 2013, 18:26

Anonymous Перейти к последнему сообщению

В этой теме нет новых непрочитанных сообщений. Скачать торрент Проверен Черная книга / Zwartboek (2006) BDRip 1080p

в форуме 720p | 1080p, Размер: 11.5 ГБ, Здоровье: 0%

Гость

0
0|0

89
1

27 мар 2016, 23:37

Гость Перейти к последнему сообщению

В этой теме нет новых непрочитанных сообщений. Скачать торрент Проверен [PSP] Ходячие мертвецы / Walking Dead (2010) HDTVRip [1 сезон, LostFilm]

в форуме Видео для смартфонов и КПК, Размер: 1.34 ГБ, Здоровье: 10%

Anonymous

0
1|10

150
0

25 окт 2014, 23:31

Anonymous Перейти к последнему сообщению



Сейчас этот форум просматривают: нет зарегистрированных пользователей и гости: 1


Вы не можете начинать темы
Вы не можете отвечать на сообщения
Вы не можете редактировать свои сообщения
Вы не можете удалять свои сообщения
Вы не можете добавлять вложения

Перейти:  

!ВНИМАНИЕ!
 Ресурс не предоставляет электронные версии произведений, а занимается лишь коллекционированием и каталогизацией ссылок, присылаемых и публикуемых на форуме нашими читателями. Если вы являетесь правообладателем какого-либо представленного материала и не желаете чтобы ссылка на него находилась в нашем каталоге, свяжитесь с нами и мы незамедлительно удалим её. Файлы для обмена на трекере предоставлены пользователями сайта, и администрация не несёт ответственности за их содержание. Просьба не заливать файлы, защищенные авторскими правами, а также файлы нелегального содержания!