На всех торрентах на трекере установлена скидка на скачивание в размере 100 процентов(а).
 Возможность скачивания торрента НЕ зависит от ограничений при низком ратио, низком аплоаде, требуемом ратио или требуемом аплоаде.


Начать новую тему Ответить на тему
Статистика раздачи
Размер: 7.95 ГБ | Добавлен: 14 июл 2013, 16:03 | Скачали: 0
Сидеров: 0  [0 байт/сек]    Личеров: 0  [0 байт/сек]
Пред. тема | След. тема 

Автор
Сообщение

СообщениеДобавлено: 14 июл 2013, 16:03 

Название: Море любви
Оригинальное название: Sea of Love
Год выхода: 1989
Жанр: Триллер, драма, криминал
Режиссер: Харольд Беккер

В ролях: Аль Пачино, Эллен Баркин, Джон Гудмен, Майкл Рукер, Уильям Хикки, Ричард Дженкинс, Джон Спенсер, Кристин Эстабрук, Сэмюэл Л. Джексон, Марк Фелан

Сюжет фильма:

В Нью-Йорке орудует серийный убийца. Его жертвы — мужчины средних лет, любители интимных знакомств по объявлениям в газете. Но, к несчастью, свидания заканчиваются для романтиков плачевно: их обнаженные трупы находят с пулей в голове, в одной и той же позе… Отыскать убийцу поручено опытным детективам Фрэнку Кэллеру (Аль Пачино) и его напарнику Шерману (Джон Гудман). Полицейским приходит в голову блестящий план. Они решают разместить в газете собственное объявление и, тем самым, поймать убийцу «на живца»...


Выпущено: США, Universal Pictures
Продолжительность: 01:52:47
Перевод: Профессиональный (Двухголосый закадровый), Английский

Качество: BDRip 1080p (исходник Blu-ray Disc)
Видео: 1920х1040, 8 811 Кбит/сек, 23.976 кадр/сек, 1.85:1, AVC, x264, 0.184 Бит/(Пиксели*Кадры), 2-pass
Аудио1: AC-3, 640 Кбит/сек, 6 канала(ов), 48,0 КГц - Профессиональный (Двухголосый закадровый)
Аудио2: AC-3, 640 Кбит/сек, 6 канала(ов), 48,0 КГц - Английский
Субтитры: Русские




Format : Matroska
Format version : Version 4 / Version 2
File size : 7.95 GiB
Duration : 1h 52mn
Overall bit rate : 10.1 Mbps
Movie name : Море любви.(1989).BDRip.1080p.NoLimits-Team
Encoded date : UTC 2013-07-14 07:50:57
Writing application : mkvmerge v6.3.0 ('You can't stop me!') built on Jun 28 2013 20:09:41
Writing library : libebml v1.3.0 + libmatroska v1.4.0

Video
ID : 1
Format : AVC
Format/Info : Advanced Video Codec
Format profile : High@L4.1
Format settings, CABAC : Yes
Format settings, ReFrames : 4 frames
Codec ID : V_MPEG4/ISO/AVC
Duration : 1h 52mn
Bit rate : 8 811 Kbps
Width : 1 920 pixels
Height : 1 040 pixels
Display aspect ratio : 1.85:1
Frame rate mode : Constant
Frame rate : 23.976 fps
Color space : YUV
Chroma subsampling : 4:2:0
Bit depth : 8 bits
Scan type : Progressive
Bits/(Pixel*Frame) : 0.184
Stream size : 6.78 GiB (85%)
Title : Море любви.(1989).BDRip.1080p от .NoLimits-Team Release_denis_100
Writing library : x264 core 133 r2334 a3ac64b
Encoding settings : cabac=1 / ref=4 / deblock=1:-3:-3 / analyse=0x3:0x113 / me=umh / subme=11 / psy=1 / psy_rd=1.00:0.15 / mixed_ref=1 / me_range=32 / chroma_me=1 / trellis=2 / 8x8dct=1 / cqm=0 / deadzone=21,11 / fast_pskip=0 / chroma_qp_offset=-3 / threads=6 / lookahead_threads=1 / sliced_threads=0 / nr=0 / decimate=0 / interlaced=0 / bluray_compat=0 / constrained_intra=0 / bframes=6 / b_pyramid=2 / b_adapt=2 / b_bias=0 / direct=3 / weightb=1 / open_gop=0 / weightp=2 / keyint=240 / keyint_min=23 / scenecut=40 / intra_refresh=0 / rc=2pass / mbtree=0 / bitrate=8811 / ratetol=1.0 / qcomp=0.60 / qpmin=0 / qpmax=69 / qpstep=4 / cplxblur=20.0 / qblur=0.5 / ip_ratio=1.40 / pb_ratio=1.30 / aq=1:0.95
Language : English
Default : Yes
Forced : No

Audio #1
ID : 2
Format : AC-3
Format/Info : Audio Coding 3
Mode extension : CM (complete main)
Format settings, Endianness : Big
Codec ID : A_AC3
Duration : 1h 52mn
Bit rate mode : Constant
Bit rate : 640 Kbps
Channel(s) : 6 channels
Channel positions : Front: L C R, Side: L R, LFE
Sampling rate : 48.0 KHz
Bit depth : 16 bits
Compression mode : Lossy
Stream size : 516 MiB (6%)
Title : Профессиональный (Двухголосый закадровый)
Language : Russian
Default : Yes
Forced : No

Audio #2
ID : 3
Format : AC-3
Format/Info : Audio Coding 3
Mode extension : CM (complete main)
Format settings, Endianness : Big
Codec ID : A_AC3
Duration : 1h 52mn
Bit rate mode : Constant
Bit rate : 640 Kbps
Channel(s) : 6 channels
Channel positions : Front: L C R, Side: L R, LFE
Sampling rate : 48.0 KHz
Bit depth : 16 bits
Compression mode : Lossy
Stream size : 516 MiB (6%)
Title : Английский
Language : English
Default : No
Forced : No

Text
ID : 4
Format : UTF-8
Codec ID : S_TEXT/UTF8
Codec ID/Info : UTF-8 Plain Text
Title : Русские
Language : Russian
Default : No
Forced : No

Menu
00:00:00.000 : en:00:00:00.000
00:03:33.338 : en:00:03:33.338
00:10:44.769 : en:00:10:44.769
00:18:16.637 : en:00:18:16.637
00:26:27.461 : en:00:26:27.461
00:33:52.864 : en:00:33:52.864
00:38:40.527 : en:00:38:40.527
00:45:03.951 : en:00:45:03.951
00:57:33.909 : en:00:57:33.909
01:04:00.211 : en:01:04:00.211
01:10:37.859 : en:01:10:37.859
01:18:22.239 : en:01:18:22.239
01:26:39.694 : en:01:26:39.694
01:31:31.695 : en:01:31:31.695
01:38:29.862 : en:01:38:29.862
01:42:48.454 : en:01:42:48.454


x264 [info]: frame I:937 Avg QP:15.08 size:156419
x264 [info]: frame P:34323 Avg QP:17.44 size: 80899
x264 [info]: frame B:126995 Avg QP:19.04 size: 35651


Релиз Группа: Автор Рипа:

загрузка...
Правила, инструкции, FAQ!!!
Торрент  Добавлен [14 июл 2013, 16:03] Скачать торрент
Скачать торрент
[ Размер 40.2 КБ / Просмотров 9 ]

Статус  
 
Размер  7.95 ГБ
Приватный: Нет (DHT включён)
.torrent скачан  0
Как залить торрент? | Как скачать Torrent? | Как смотреть и слушать онлайн?  


     Отправить личное сообщение
   
Страница 1 из 1
Показать сообщения за:  Поле сортировки  
Начать новую тему Ответить на тему

   Похожие торренты   Автор   Ответы   Просмотры   Последнее сообщение 
В этой теме нет новых непрочитанных сообщений. Скачать торрент Проверен Анатомия любви / Endless Love (2014) BDRip 1080p | iTunes

в форуме 720p | 1080p, Размер: 7.93 ГБ, Здоровье: 0%

Anonymous

0
0|0

27
0

22 май 2014, 06:17

Anonymous Перейти к последнему сообщению

В этой теме нет новых непрочитанных сообщений. Скачать торрент Проверен Сумасшедший вид любви / Crazy Kind of Love (2013) BDRip 1080p | L1

в форуме 720p | 1080p, Размер: 3.38 ГБ, Здоровье: 100%

Anonymous

0
5|1

45
336

06 авг 2014, 18:02

Anonymous Перейти к последнему сообщению

В этой теме нет новых непрочитанных сообщений. Скачать торрент Проверен Морской бой / Battleship (2012) BDRip 1080p от New-Team

в форуме 720p | 1080p, Размер: 13.87 ГБ, Здоровье: 100%

Anonymous

0
61|58

23
152

31 авг 2014, 17:09

Anonymous Перейти к последнему сообщению

В этой теме нет новых непрочитанных сообщений. Скачать торрент Проверен Команда «А» / The A-Team (2010) BDRip 1080p | Расширенная версия

в форуме 720p | 1080p, Размер: 11.54 ГБ, Здоровье: 100%

Гость

0
23|3

30
101

01 дек 2014, 17:21

Гость Перейти к последнему сообщению

В этой теме нет новых непрочитанных сообщений. Скачать торрент Проверен Застрял в любви / Stuck in Love (2012) BDRemux 1080p | L

в форуме BD-Remux, Размер: 16.67 ГБ, Здоровье: 50%

Anonymous

0
1|2

183
0

09 ноя 2014, 20:11

Anonymous Перейти к последнему сообщению



Сейчас этот форум просматривают: нет зарегистрированных пользователей и гости: 2


Вы не можете начинать темы
Вы не можете отвечать на сообщения
Вы не можете редактировать свои сообщения
Вы не можете удалять свои сообщения
Вы не можете добавлять вложения

Перейти:  

!ВНИМАНИЕ!
 Ресурс не предоставляет электронные версии произведений, а занимается лишь коллекционированием и каталогизацией ссылок, присылаемых и публикуемых на форуме нашими читателями. Если вы являетесь правообладателем какого-либо представленного материала и не желаете чтобы ссылка на него находилась в нашем каталоге, свяжитесь с нами и мы незамедлительно удалим её. Файлы для обмена на трекере предоставлены пользователями сайта, и администрация не несёт ответственности за их содержание. Просьба не заливать файлы, защищенные авторскими правами, а также файлы нелегального содержания!