На всех торрентах на трекере установлена скидка на скачивание в размере 100 процентов(а).
 Возможность скачивания торрента НЕ зависит от ограничений при низком ратио, низком аплоаде, требуемом ратио или требуемом аплоаде.


Начать новую тему Ответить на тему
Статистика раздачи
Размер: 5.77 ГБ | Добавлен: 11 июл 2013, 20:30 | Скачали: 10
Сидеров: 39  [0 байт/сек]    Личеров: 1  [0 байт/сек]
Пред. тема | След. тема 

Автор
Сообщение

СообщениеДобавлено: 11 июл 2013, 20:30 

Название: Сотовый
Оригинальное название: Cellular
Год выхода: 2004
Жанр: боевик, триллер, драма, криминал
Режиссер: Дэвид Р. Эллис / David R. Ellis

В ролях: Ким Бейсингер, Джессика Бил, Крис Эванс, Джейсон Стэтхэм, Эрик Кристиан Олсен, Эрик Этебари, Уильям Х. Мэйси, Ричард Берджи, Мэтт МакКольм, Эдди Дрисколл

О фильме:
Джессику похищают и запирают на чердаке. Вся её надежда на неисправный, едва работающий телефон. Позвонив по первому попавшемуся номеру, она сообщает Райану (случайному молодому человеку) о своем похищении и о том, что её хотят убить, а также и её мужа и сына, за которыми теперь отправились похитители.
Она не знает, где находится, а у единственного возможного спасителя скоро сядет батарейка телефона. Теперь Райану, знакомому с Джессикой только по ее паническому голосу, придется бороться со временем, которого остается все меньше, и постоянными проблемами со связью и лицом столкнуться с убийством и обманом.



Выпущено: США, Германия
Продолжительность: 01:33:59
Перевод: Дублированный + Оригинал


Кодек: x264
Качество: BDRip 1080p
Видео: 1920x1080, 7888 Kbps, 23.976 fps
Аудио #1: AC-3, 6 ch, 448 kbps (Rus)
Аудио #2: AC-3, 6 ch, 448 kbps (Eng)
Субтитры: русские, английские

Общее
Уникальный идентификатор : 172570710863702536992192408469295424280 (0x81D3E8F2FC34E461A6490C9198A16318)
Полное имя : Сотовый.2004.BDRip.1080p.Rus.Eng.mkv
Формат : Matroska
Версия формата : Version 2
Размер файла : 5,77 Гбайт
Продолжительность : 1 ч. 33 м.
Общий поток : 8781 Кбит/сек
Название фильма : Сотовый.2004
Дата кодирования : UTC 2013-07-11 14:09:11
Программа кодирования : mkvmerge v5.8.0 ('No Sleep / Pillow') built on Sep 2 2012 15:37:04
Библиотека кодирования : libebml v1.2.3 + libmatroska v1.3.0

Видео
Идентификатор : 1
Формат : AVC
Формат/Информация : Advanced Video Codec
Профиль формата : High@L4.1
Параметр CABAC формата : Да
Параметр ReFrames формата : 4 кадра
Идентификатор кодека : V_MPEG4/ISO/AVC
Продолжительность : 1 ч. 33 м.
Битрейт : 7888 Кбит/сек
Ширина : 1920 пикселей
Высота : 1080 пикселей
Соотношение сторон : 16:9
Режим частоты кадров : Постоянный
Частота кадров : 23,976 кадра/сек
Цветовое пространство : YUV
Субдискретизация насыщенности : 4:2:0
Битовая глубина : 8 бит
Тип развёртки : Прогрессивная
Бит/(Пиксели*Кадры) : 0.159
Размер потока : 5,06 Гбайт (88%)
Заголовок : Rip by Boriy
Библиотека кодирования : x264 core 133 r2334 a3ac64b
Настройки программы : cabac=1 / ref=4 / deblock=1:-3:-3 / analyse=0x3:0x113 / me=umh / subme=10 / psy=1 / psy_rd=1.00:0.10 / mixed_ref=1 / me_range=32 / chroma_me=1 / trellis=2 / 8x8dct=1 / cqm=0 / deadzone=21,11 / fast_pskip=0 / chroma_qp_offset=-2 / threads=12 / lookahead_threads=1 / sliced_threads=0 / nr=0 / decimate=0 / interlaced=0 / bluray_compat=0 / constrained_intra=0 / bframes=6 / b_pyramid=2 / b_adapt=2 / b_bias=0 / direct=3 / weightb=1 / open_gop=0 / weightp=2 / keyint=240 / keyint_min=23 / scenecut=40 / intra_refresh=0 / rc=2pass / mbtree=0 / bitrate=7888 / ratetol=1.0 / qcomp=0.60 / qpmin=0 / qpmax=69 / qpstep=4 / cplxblur=20.0 / qblur=0.5 / ip_ratio=1.40 / pb_ratio=1.30 / aq=1:0.80
Язык : English
Default : Да
Forced : Нет

Аудио #1
Идентификатор : 2
Формат : AC-3
Формат/Информация : Audio Coding 3
Расширение режима : CM (complete main)
Параметр Endianness формата : Big
Идентификатор кодека : A_AC3
Продолжительность : 1 ч. 33 м.
Вид битрейта : Постоянный
Битрейт : 448 Кбит/сек
Каналы : 6 каналов
Расположение каналов : Front: L C R, Side: L R, LFE
Частота : 48,0 КГц
Битовая глубина : 16 бит
Метод сжатия : С потерями
Размер потока : 301 Мбайт (5%)
Заголовок : Дубляж
Язык : Russian
Default : Да
Forced : Нет

Аудио #2
Идентификатор : 3
Формат : AC-3
Формат/Информация : Audio Coding 3
Расширение режима : CM (complete main)
Параметр Endianness формата : Big
Идентификатор кодека : A_AC3
Продолжительность : 1 ч. 33 м.
Вид битрейта : Постоянный
Битрейт : 448 Кбит/сек
Каналы : 6 каналов
Расположение каналов : Front: L C R, Side: L R, LFE
Частота : 48,0 КГц
Битовая глубина : 16 бит
Метод сжатия : С потерями
Размер потока : 301 Мбайт (5%)
Заголовок : Оригинал
Язык : English
Default : Нет
Forced : Нет

Текст #1
Идентификатор : 4
Формат : UTF-8
Идентификатор кодека : S_TEXT/UTF8
Идентификатор кодека/Информация : UTF-8 Plain Text
Язык : Russian
Default : Нет
Forced : Нет

Текст #2
Идентификатор : 5
Формат : UTF-8
Идентификатор кодека : S_TEXT/UTF8
Идентификатор кодека/Информация : UTF-8 Plain Text
Язык : English
Default : Нет
Forced : Нет

Меню
00:00:00.000 : :Taken and Trapped
00:05:49.849 : :Healing the Day
00:09:35.675 : :"Who Is This?"
00:15:10.576 : :Police Station
00:19:47.753 : :Wyman School
00:25:14.913 : :Low Battery
00:29:46.851 : :"You Got 3 Seconds!"
00:36:17.775 : :Crossed Lines
00:40:31.996 : :Lax
00:46:12.970 : :Connections
00:49:05.008 : :Safe Deposit
00:56:07.997 : :Mooney's House Call
01:02:09.392 : :Offline
01:10:53.349 : :Pier Hunt
01:17:55.237 : :Last Call
01:27:40.922 : :End Credits
загрузка...
Правила, инструкции, FAQ!!!
Торрент  Добавлен [11 июл 2013, 20:30] Скачать торрент
Скачать торрент
[ Размер 29.25 КБ / Просмотров 12 ]

Статус  
 
Размер  5.77 ГБ
Приватный: Нет (DHT включён)
.torrent скачан  10
Как залить торрент? | Как скачать Torrent? | Как смотреть и слушать онлайн?  


     Отправить личное сообщение
   
Страница 1 из 1
Показать сообщения за:  Поле сортировки  
Начать новую тему Ответить на тему

   Похожие торренты   Автор   Ответы   Просмотры   Последнее сообщение 
В этой теме нет новых непрочитанных сообщений. Скачать торрент Проверен [iPad] Сотовый / Cellular (Дэвид Р. Эллис / David R. Ellis) [2004, триллер, BDRip, 1024x] (DUB | MVO | Original)

в форуме Фильмы для iPod, iPhone, iPad, Размер: 2.31 ГБ, Здоровье: 100%

Anonymous

0
5|2

21
0

11 май 2015, 01:30

Anonymous Перейти к последнему сообщению

В этой теме нет новых непрочитанных сообщений. Скачать торрент Проверен Контроль / Control (2004) BDRip 1080p | P, A

в форуме 720p | 1080p, Размер: 12.21 ГБ, Здоровье: 100%

Anonymous

0
99|11

149
6

16 май 2016, 22:05

Anonymous Перейти к последнему сообщению

В этой теме нет новых непрочитанных сообщений. Скачать торрент Проверен Послезавтра / The Day After Tomorrow (2004) BDRip 1080p

в форуме 720p | 1080p, Размер: 11.5 ГБ, Здоровье: 100%

Anonymous

0
23|4

42
95

06 ноя 2014, 17:31

Anonymous Перейти к последнему сообщению

В этой теме нет новых непрочитанных сообщений. Скачать торрент Два брата / Two brothers (2004) BDRip 1080p

в форуме 720p | 1080p, Размер: 7.95 ГБ, Здоровье: 100%

Anonymous

0
10|2

59
97

17 мар 2014, 21:54

Anonymous Перейти к последнему сообщению

В этой теме нет новых непрочитанных сообщений. Скачать торрент Проверен Ван Хельсинг / Van Helsing (2004) BDRip 1080p

в форуме 720p | 1080p, Размер: 11.55 ГБ, Здоровье: 100%

Anonymous

0
15|4

52
282

11 июл 2014, 22:00

Anonymous Перейти к последнему сообщению



Сейчас этот форум просматривают: нет зарегистрированных пользователей и гости: 2


Вы не можете начинать темы
Вы не можете отвечать на сообщения
Вы не можете редактировать свои сообщения
Вы не можете удалять свои сообщения
Вы не можете добавлять вложения

Перейти:  

!ВНИМАНИЕ!
 Ресурс не предоставляет электронные версии произведений, а занимается лишь коллекционированием и каталогизацией ссылок, присылаемых и публикуемых на форуме нашими читателями. Если вы являетесь правообладателем какого-либо представленного материала и не желаете чтобы ссылка на него находилась в нашем каталоге, свяжитесь с нами и мы незамедлительно удалим её. Файлы для обмена на трекере предоставлены пользователями сайта, и администрация не несёт ответственности за их содержание. Просьба не заливать файлы, защищенные авторскими правами, а также файлы нелегального содержания!