На всех торрентах на трекере установлена скидка на скачивание в размере 100 процентов(а).
 Возможность скачивания торрента НЕ зависит от ограничений при низком ратио, низком аплоаде, требуемом ратио или требуемом аплоаде.


Начать новую тему Ответить на тему
Статистика раздачи
Размер: 2.19 ГБ | Добавлен: 11 июл 2013, 09:04 | Скачали: 1
Сидеров: 0  [0 байт/сек]    Личеров: 0  [0 байт/сек]
Пред. тема | След. тема 

Автор
Сообщение

СообщениеДобавлено: 11 июл 2013, 09:04 

Название: Косяки
Оригинальное название: Loosies
Год выпуска: 2012
Жанр: Драма, мелодрама, комедия, криминал
Режиссер: Майкл Корренте

В ролях: Питер Фачинелли, Джейми Александр, Майкл Мэдсен, Винсент Галло, Джо Пантольяно, Кристи Карлсон, Романо Уильям, Форсайт Стрим, Марианн Леоне

О фильме: Бобби — вор-карманник, на котором висит крупный долг отца. Матери он врет, что работает на Уолл-Стрит, сам же, надев строгий костюм и начистив ботинки, спускается в подземку и целый день обчищает карманы людей. Все окончательно переворачивается с ног на голову, когда девушка, с которой Бобби однажды переспал, заявляет ему, что беременна.


Страна: США
Студия: Facinelli Films, IFC Films, Verdi Productions
Продолжительность: 01:28:25
Перевод: Профессиональный многоголосый, любительский многоголосый


Кодек: x264
Качество: BDRip (AVC)
Видео: MPEG-4 AVC, 2500 Кбит/c, 1024x556, 24.000 кадр/c
Аудио #1: Русский (AC3, 2 ch, 192 Кбит/c) / Профессиональный многоголосый
Аудио #2: Русский (AC3, 6 ch, 448 Кбит/c) / Любительский многоголосый
Аудио #3: Английский (AC3, 6 ch, 448 Кбит/c)
Субтитры: Русские, английские






Общее
Уникальный идентификатор : 191164471358341971319409398370643353761 (0x8FD0F01EBFD906B89F1E480EC94E20A1)
Полное имя : D:Mои раздачиKosyaki.2011.BDRip.(AVC)-MediaClub.mkv
Формат : Matroska
Версия формата : Version 2
Размер файла : 2,19 Гбайт
Продолжительность : 1 ч. 28 м.
Общий поток : 3550 Кбит/сек
Название фильма : Косяки (MediaClub-kaspr)
Дата кодирования : UTC 2013-07-11 04:47:18
Программа кодирования : mkvmerge v5.7.0 ('The Whirlwind') built on Aug 7 2012 14:11:40
Библиотека кодирования : libebml v1.2.3 + libmatroska v1.3.0

Видео
Идентификатор : 1
Формат : AVC
Формат/Информация : Advanced Video Codec
Профиль формата : High@L4.1
Параметр CABAC формата : Да
Параметр ReFrames формата : 9 кадров
Идентификатор кодека : V_MPEG4/ISO/AVC
Продолжительность : 1 ч. 28 м.
Битрейт : 2500 Кбит/сек
Ширина : 1024 пикселя
Высота : 556 пикселей
Соотношение сторон : 1,85:1
Режим частоты кадров : Постоянный
Частота кадров : 24,000 кадра/сек
Цветовое пространство : YUV
Субдискретизация насыщенности : 4:2:0
Битовая глубина : 8 бит
Тип развёртки : Прогрессивная
Бит/(Пиксели*Кадры) : 0.183
Размер потока : 1,48 Гбайт (67%)
Заголовок : Косяки (MediaClub-kaspr)
Библиотека кодирования : x264 core 133 r2334 a3ac64b
Настройки программы : cabac=1 / ref=9 / deblock=1:-3:-3 / analyse=0x3:0x133 / me=umh / subme=11 / psy=1 / psy_rd=1.00:0.10 / mixed_ref=1 / me_range=32 / chroma_me=1 / trellis=2 / 8x8dct=1 / cqm=0 / deadzone=21,11 / fast_pskip=0 / chroma_qp_offset=-3 / threads=12 / lookahead_threads=3 / sliced_threads=0 / nr=0 / decimate=0 / interlaced=0 / bluray_compat=0 / constrained_intra=0 / bframes=10 / b_pyramid=2 / b_adapt=2 / b_bias=0 / direct=3 / weightb=1 / open_gop=0 / weightp=2 / keyint=240 / keyint_min=22 / scenecut=40 / intra_refresh=0 / rc=2pass / mbtree=0 / bitrate=2500 / ratetol=1.0 / qcomp=0.60 / qpmin=0 / qpmax=69 / qpstep=4 / cplxblur=20.0 / qblur=0.5 / ip_ratio=1.40 / pb_ratio=1.30 / aq=1:1.00
Default : Да
Forced : Да

Аудио #1
Идентификатор : 2
Формат : AC-3
Формат/Информация : Audio Coding 3
Расширение режима : CM (complete main)
Параметр Endianness формата : Big
Идентификатор кодека : A_AC3
Продолжительность : 1 ч. 28 м.
Вид битрейта : Постоянный
Битрейт : 192 Кбит/сек
Каналы : 2 канала
Расположение каналов : Front: L R
Частота : 48,0 КГц
Битовая глубина : 16 бит
Метод сжатия : С потерями
Размер потока : 121 Мбайт (5%)
Заголовок : ПМ
Язык : Russian
Default : Да
Forced : Да

Аудио #2
Идентификатор : 3
Формат : AC-3
Формат/Информация : Audio Coding 3
Расширение режима : CM (complete main)
Параметр Endianness формата : Big
Идентификатор кодека : A_AC3
Продолжительность : 1 ч. 28 м.
Вид битрейта : Постоянный
Битрейт : 448 Кбит/сек
Каналы : 6 каналов
Расположение каналов : Front: L C R, Side: L R, LFE
Частота : 48,0 КГц
Битовая глубина : 16 бит
Метод сжатия : С потерями
Размер потока : 283 Мбайт (13%)
Заголовок : ЛМ
Язык : Russian
Default : Нет
Forced : Нет

Аудио #3
Идентификатор : 4
Формат : AC-3
Формат/Информация : Audio Coding 3
Расширение режима : CM (complete main)
Параметр Endianness формата : Big
Идентификатор кодека : A_AC3
Продолжительность : 1 ч. 28 м.
Вид битрейта : Постоянный
Битрейт : 448 Кбит/сек
Каналы : 6 каналов
Расположение каналов : Front: L C R, Side: L R, LFE
Частота : 48,0 КГц
Битовая глубина : 16 бит
Метод сжатия : С потерями
Размер потока : 283 Мбайт (13%)
Заголовок : Оригинал
Язык : English
Default : Нет
Forced : Нет

Текст #1
Идентификатор : 5
Формат : UTF-8
Идентификатор кодека : S_TEXT/UTF8
Идентификатор кодека/Информация : UTF-8 Plain Text
Язык : Russian
Default : Нет
Forced : Нет

Текст #2
Идентификатор : 6
Формат : UTF-8
Идентификатор кодека : S_TEXT/UTF8
Идентификатор кодека/Информация : UTF-8 Plain Text
Язык : English
Default : Нет
Forced : Нет

Меню
00:00:00.000 : en:Chapter 01
00:01:51.292 : en:Chapter 02
00:14:30.917 : en:Chapter 03
00:28:05.833 : en:Chapter 04
00:42:18.667 : en:Chapter 05
00:53:24.042 : en:Chapter 06
01:03:48.125 : en:Chapter 07
01:14:12.792 : en:Chapter 08
01:23:41.583 : en:Chapter 09
01:30:00.000 : en:Chapter 10
01:35:33.125 : en:Chapter 11


Релиз:
загрузка...
Правила, инструкции, FAQ!!!
Торрент  Добавлен [11 июл 2013, 09:04] Скачать торрент
Скачать торрент
[ Размер 11.54 КБ / Просмотров 6 ]

Статус  
 
Размер  2.19 ГБ
Приватный: Нет (DHT включён)
.torrent скачан  1
Как залить торрент? | Как скачать Torrent? | Как смотреть и слушать онлайн?  


     Отправить личное сообщение
   
Страница 1 из 1
Показать сообщения за:  Поле сортировки  
Начать новую тему Ответить на тему

   Похожие торренты   Автор   Ответы   Просмотры   Последнее сообщение 
В этой теме нет новых непрочитанных сообщений. Скачать торрент Проверен Nuclear Blast Clips 01(2011) [2011, Various metal, BDRip, 1080]

в форуме Концерты (HD-Video), Размер: 17.64 ГБ, Здоровье: 100%

Anonymous

0
5|1

1
0

23 окт 2016, 14:30

Anonymous Перейти к последнему сообщению

В этой теме нет новых непрочитанных сообщений. Скачать торрент Проверен Deep Purple with Orchestra - Live At Montreux 2011 [2011, Hard Rock, BDRip 720p]

в форуме Концерты (HD-Video), Размер: 7.95 ГБ, Здоровье: 100%

Anonymous

0
4|2

6
2

23 окт 2016, 19:00

Anonymous Перейти к последнему сообщению

В этой теме нет новых непрочитанных сообщений. Скачать торрент Проверен Simply Red - Farewell Live in Concert at Sydney Opera House [2011, 720p, DTS, LPCM] [2011, New Wave, Pop Rock, Blue-Eyed Soul, BDRip]

в форуме Концерты (HD-Video), Размер: 6.52 ГБ, Здоровье: 100%

Гость

0
8|8

167
3

03 май 2015, 22:19

Гость Перейти к последнему сообщению

В этой теме нет новых непрочитанных сообщений. Скачать торрент Проверен Feuertanz Festival 2011 (Ingrimm, Dudelzwerge, Pampatut, Vroudenspil, Rabenschrey, Schelmish, Eric Fish, Omnia, Korpiklaani, Schandmaul) [2011, Folk Rock, Folk Metal, BDRip 720p]

в форуме Концерты (HD-Video), Размер: 8.8 ГБ, Здоровье: 100%

Anonymous

0
1|0

0
0

23 окт 2016, 15:51

Anonymous Перейти к последнему сообщению

В этой теме нет новых непрочитанных сообщений. Скачать торрент Рио / Rio (2011) BDRip | Лицензия

в форуме Зарубежные мультфильмы, Размер: 1.45 ГБ, Здоровье: 0%

Anonymous

0
0|0

97
0

24 мар 2014, 16:03

Anonymous Перейти к последнему сообщению



Сейчас этот форум просматривают: нет зарегистрированных пользователей и гости: 2


Вы не можете начинать темы
Вы не можете отвечать на сообщения
Вы не можете редактировать свои сообщения
Вы не можете удалять свои сообщения
Вы не можете добавлять вложения

Перейти:  

!ВНИМАНИЕ!
 Ресурс не предоставляет электронные версии произведений, а занимается лишь коллекционированием и каталогизацией ссылок, присылаемых и публикуемых на форуме нашими читателями. Если вы являетесь правообладателем какого-либо представленного материала и не желаете чтобы ссылка на него находилась в нашем каталоге, свяжитесь с нами и мы незамедлительно удалим её. Файлы для обмена на трекере предоставлены пользователями сайта, и администрация не несёт ответственности за их содержание. Просьба не заливать файлы, защищенные авторскими правами, а также файлы нелегального содержания!