На всех торрентах на трекере установлена скидка на скачивание в размере 100 процентов(а).
 Возможность скачивания торрента НЕ зависит от ограничений при низком ратио, низком аплоаде, требуемом ратио или требуемом аплоаде.


Начать новую тему Ответить на тему
Статистика раздачи
Размер: 4.02 ГБ | Добавлен: 10 июл 2013, 00:05 | Скачали: 0
Сидеров: 0  [0 байт/сек]    Личеров: 0  [0 байт/сек]
Пред. тема | След. тема 

Автор
Сообщение

СообщениеДобавлено: 10 июл 2013, 00:05 

Название: Девушка из Джерси
Оригинальное название: Jersey Girl
Год выпуска: 2004
Жанр: Комедия, мелодрама, драма
Выпущено: США, Miramax Films
Режиссер: Кевин Смит

В ролях: Бен Аффлек, Лив Тайлер, Джордж Карлин, Стивен Рут, Майк Старр, Ракель Кастро, Джейсон Биггз, Дженнифер Лопес, Мэтт Дэймон, Дженнифер Швалбах Смит, Виктор Чавез, Сара Стэффорд, Пол Литовски, Кристиан Фэн, Виктор Чавез, Уильям Мейс, Джордж Карлин, Стивен Рут, Майк Старр, С. Эпата Меркерсон, Джада Коуплэнд, Брайан Делани, Кэрол Флоренс

О фильме: На рождественской вечеринке Олли Тринке знакомится с красавицей Гертрудой, женится на ней и готовится стать отцом. Однако его счастье длится недолго — молодая жена умирает при родах, оставляя ему дочку. Потеряв работу, Олли переезжает в пригород к своему отцу, где спустя некоторое время знакомится с милой девушкой Майей. Вместе, Майя и его подросшая дочь, возвращают Олли вкус к жизни…

Качество: BDRip 720p
Продолжительность: 01:42:11

Видео: MPEG-4 AVC, 4199 Кбит/с, 1280x526
Аудио: русский, 48 kHz, AC3, 6 ch, 448 kbps avg, [Дублированный]

Внешние файлы
Аудио: украинский, 48 kHz, AC3, 2 ch, 192 kbps avg, [Профессиональный многоголосый]
Аудио: английский, 48 kHz, AC3, 6 ch, 448 kbps avg, [Оригинал]
Аудио: английский, 48 kHz, AC3, 2 ch, 256 kbps avg, [Комментарий #1]
Аудио: английский, 48 kHz, AC3, 2 ch, 192 kbps avg, [Комментарий #1]
Субтитры: русские
Субтитры: английские





Золотая малина, 2005 год
Номинации (3):

Худшая мужская роль (Бен Аффлек)
Худшая женская роль второго плана (Дженнифер Лопез)
Худшая экранная пара — «Бен Аффлек и Дженнифер Лопез или Бен Аффлек и Лив Тайлер»
---[NoImage] AVCSource("E:RipDevushka.iz.Dgersi.2004.x264.BDRipDevushka.iz.Dgersi.2004.x264.BDRemux.dga")
---[NoImage] #deinterlace
---[NoImage] crop(2, 146, 0, -146)
---[NoImage] Lanczos4Resize(1280,526) # Lanczos4 (Sharp)
---[NoImage] #denoise
--[Information] [09.07.2013 5:16:09] resolution: 1280x526
--[Information] [09.07.2013 5:16:09] frame rate: 48000/2002
--[Information] [09.07.2013 5:16:09] aspect ratio: 640:263 (2.433)
--[Information] [09.07.2013 5:16:09] Job commandline: "C:SoftMeGUI_2237_x86toolsx264x264.exe" --level 4.1 --tune film --pass 2 --bitrate 4199 --stats "E:RipDevushka.iz.Dgersi.2004.x264.BDRipDevushka.iz.Dgersi.2004.x264.BDRip.720p.stats" --keyint 230 --bframes 8 --b-adapt 2 --no-weightb --ref 9 --vbv-bufsize 62500 --vbv-maxrate 50000 --ratetol 50.0 --no-mbtree --rc-lookahead 60 --merange 24 --me umh --direct auto --subme 10 --trellis 2 --no-dct-decimate --no-fast-pskip --sar 1:1 --output "E:RipDevushka.iz.Dgersi.2004.x264.BDRipDevushka.iz.Dgersi.2004.x264.BDRip.720p.mkv" "E:RipDevushka.iz.Dgersi.2004.x264.BDRipDevushka.iz.Dgersi.2004.x264.BDRemux.avs"
--[Information] [09.07.2013 5:16:09] Process started
--[Information] [09.07.2013 5:16:09] Standard output stream
--[Information] [09.07.2013 5:16:09] Standard error stream
---[Information] [09.07.2013 5:16:16] avs [info]: 1280x526p 1:1 @ 24000/1001 fps (cfr)
---[Information] [09.07.2013 5:16:16] x264 [info]: using SAR=1/1
---[Information] [09.07.2013 5:16:16] x264 [info]: using cpu capabilities: MMX2 SSE2Fast SSSE3 SSE4.2
---[Information] [09.07.2013 5:16:16] x264 [info]: profile High, level 4.1
---[Information] [09.07.2013 12:34:31] x264 [info]: frame I:1361 Avg QP:17.98 size:102770
---[Information] [09.07.2013 12:34:31] x264 [info]: frame P:28502 Avg QP:20.46 size: 42824
---[Information] [09.07.2013 12:34:31] x264 [info]: frame B:117145 Avg QP:22.27 size: 15134
---[Information] [09.07.2013 12:34:31] x264 [info]: consecutive B-frames: 1.7% 1.9% 4.9% 14.7% 12.8% 38.5% 13.2% 6.8% 5.5%
---[Information] [09.07.2013 12:34:31] x264 [info]: mb I I16..4: 27.2% 49.8% 23.1%
---[Information] [09.07.2013 12:34:31] x264 [info]: mb P I16..4: 3.2% 15.4% 1.4% P16..4: 38.3% 28.2% 12.2% 0.0% 0.0% skip: 1.4%
---[Information] [09.07.2013 12:34:31] x264 [info]: mb B I16..4: 0.1% 1.5% 0.1% B16..8: 48.4% 12.3% 3.6% direct: 9.8% skip:24.1% L0:41.8% L1:48.9% BI: 9.2%
---[Information] [09.07.2013 12:34:31] x264 [info]: 8x8 transform intra:75.2% inter:56.0%
---[Information] [09.07.2013 12:34:31] x264 [info]: direct mvs spatial:99.3% temporal:0.7%
---[Information] [09.07.2013 12:34:31] x264 [info]: coded y,uvDC,uvAC intra: 92.6% 55.2% 24.2% inter: 35.5% 14.8% 2.4%
---[Information] [09.07.2013 12:34:31] x264 [info]: i16 v,h,dc,p: 21% 8% 34% 38%
---[Information] [09.07.2013 12:34:31] x264 [info]: i8 v,h,dc,ddl,ddr,vr,hd,vl,hu: 11% 7% 12% 10% 13% 13% 12% 11% 12%
---[Information] [09.07.2013 12:34:31] x264 [info]: i4 v,h,dc,ddl,ddr,vr,hd,vl,hu: 11% 8% 6% 9% 14% 14% 13% 12% 13%
---[Information] [09.07.2013 12:34:31] x264 [info]: i8c dc,h,v,p: 43% 25% 21% 10%
---[Information] [09.07.2013 12:34:31] x264 [info]: Weighted P-Frames: Y:4.6% UV:1.3%
---[Information] [09.07.2013 12:34:31] x264 [info]: ref P L0: 42.6% 10.8% 19.7% 7.0% 6.5% 4.2% 4.3% 2.3% 2.5% 0.2% 0.0%
---[Information] [09.07.2013 12:34:31] x264 [info]: ref B L0: 73.5% 12.3% 5.7% 3.1% 2.2% 1.9% 1.0% 0.3%
---[Information] [09.07.2013 12:34:31] x264 [info]: ref B L1: 92.2% 7.8%
---[Information] [09.07.2013 12:34:31] x264 [info]: kb/s:4088.11
---[Information] [09.07.2013 12:34:31] encoded 147008 frames, 5.59 fps, 4088.11 kb/s
--[Information] [09.07.2013 12:34:34] Final statistics
---[Information] [09.07.2013 12:34:34] Video Bitrate Desired: 4199 kbit/s
---[Information] [09.07.2013 12:34:34] Video Bitrate Obtained (approximate): 4089 kbit/s
--[Information] [09.07.2013 12:34:34] MediaInfo
---[Information] File: E:RipDevushka.iz.Dgersi.2004.x264.BDRipDevushka.iz.Dgersi.2004.x264.BDRip.720p.mkv
Общее
Полное имя : E:VideoDevushka.iz.Dgersi.2004.x264.BDRip.720pDevushka.iz.Dgersi.2004.Commentary #1.eng.ac3
Формат : AC-3
Формат/Информация : Audio Coding 3
Размер файла : 140 Мбайт
Продолжительность : 1 ч. 42 м.
Режим общего битрейта : Постоянный
Общий поток : 192 Кбит/сек

Аудио
Формат : AC-3
Формат/Информация : Audio Coding 3
Расширение режима : CM (complete main)
Параметр Endianness формата : Big
Продолжительность : 1 ч. 42 м.
Вид битрейта : Постоянный
Битрейт : 192 Кбит/сек
Каналы : 2 канала
Расположение каналов : Front: L R
Частота : 48,0 КГц
Битовая глубина : 16 бит
Метод сжатия : С потерями
Размер потока : 140 Мбайт (100%)

Общее
Полное имя : E:VideoDevushka.iz.Dgersi.2004.x264.BDRip.720pDevushka.iz.Dgersi.2004.Commentary #2.eng.ac3
Формат : AC-3
Формат/Информация : Audio Coding 3
Размер файла : 187 Мбайт
Продолжительность : 1 ч. 42 м.
Режим общего битрейта : Постоянный
Общий поток : 256 Кбит/сек

Аудио
Формат : AC-3
Формат/Информация : Audio Coding 3
Расширение режима : CM (complete main)
Параметр Endianness формата : Big
Продолжительность : 1 ч. 42 м.
Вид битрейта : Постоянный
Битрейт : 256 Кбит/сек
Каналы : 2 канала
Расположение каналов : Front: L R
Частота : 48,0 КГц
Битовая глубина : 16 бит
Метод сжатия : С потерями
Размер потока : 187 Мбайт (100%)

Общее
Полное имя : E:VideoDevushka.iz.Dgersi.2004.x264.BDRip.720pDevushka.iz.Dgersi.2004.eng.srt
Размер файла : 235 Кбайт

Общее
Полное имя : E:VideoDevushka.iz.Dgersi.2004.x264.BDRip.720pDevushka.iz.Dgersi.2004.MVO.ukr.ac3
Формат : AC-3
Формат/Информация : Audio Coding 3
Размер файла : 140 Мбайт
Продолжительность : 1 ч. 42 м.
Режим общего битрейта : Постоянный
Общий поток : 192 Кбит/сек

Аудио
Формат : AC-3
Формат/Информация : Audio Coding 3
Расширение режима : CM (complete main)
Параметр Endianness формата : Big
Продолжительность : 1 ч. 42 м.
Вид битрейта : Постоянный
Битрейт : 192 Кбит/сек
Каналы : 2 канала
Расположение каналов : Front: L R
Частота : 48,0 КГц
Битовая глубина : 16 бит
Метод сжатия : С потерями
Размер потока : 140 Мбайт (100%)

Общее
Полное имя : E:VideoDevushka.iz.Dgersi.2004.x264.BDRip.720pDevushka.iz.Dgersi.2004.Original.eng.ac3
Формат : AC-3
Формат/Информация : Audio Coding 3
Размер файла : 327 Мбайт
Продолжительность : 1 ч. 42 м.
Режим общего битрейта : Постоянный
Общий поток : 448 Кбит/сек

Аудио
Формат : AC-3
Формат/Информация : Audio Coding 3
Расширение режима : CM (complete main)
Параметр Endianness формата : Big
Продолжительность : 1 ч. 42 м.
Вид битрейта : Постоянный
Битрейт : 448 Кбит/сек
Каналы : 6 каналов
Расположение каналов : Front: L C R, Side: L R, LFE
Частота : 48,0 КГц
Битовая глубина : 16 бит
Метод сжатия : С потерями
Размер потока : 327 Мбайт (100%)

Общее
Полное имя : E:VideoDevushka.iz.Dgersi.2004.x264.BDRip.720pDevushka.iz.Dgersi.2004.rus.srt
Размер файла : 190 Кбайт

Общее
Уникальный идентификатор : 250421627491830603207019805238885756386 (0xBC65737C00828DC2969F8A27F7362DE2)
Полное имя : E:VideoDevushka.iz.Dgersi.2004.x264.BDRip.720pDevushka.iz.Dgersi.2004.x264.BDRip.720p.mkv
Формат : Matroska
Версия формата : Version 4 / Version 2
Размер файла : 3,24 Гбайт
Продолжительность : 1 ч. 42 м.
Общий поток : 4538 Кбит/сек
Название фильма : Девушка из Джерси / Jersey Girl / 2004 / BDRip -- STarankov
Дата кодирования : UTC 2013-07-09 10:41:44
Программа кодирования : mkvmerge v6.3.0 ('You can't stop me!') built on Jun 28 2013 20:09:41
Библиотека кодирования : libebml v1.3.0 + libmatroska v1.4.0

Видео
Идентификатор : 1
Формат : AVC
Формат/Информация : Advanced Video Codec
Профиль формата : High@L4.1
Параметр CABAC формата : Да
Параметр ReFrames формата : 9 кадров
Идентификатор кодека : V_MPEG4/ISO/AVC
Продолжительность : 1 ч. 42 м.
Битрейт : 4199 Кбит/сек
Ширина : 1280 пикселей
Высота : 526 пикселей
Соотношение сторон : 2,40:1
Режим частоты кадров : Постоянный
Частота кадров : 23,976 кадра/сек
Цветовое пространство : YUV
Субдискретизация насыщенности : 4:2:0
Битовая глубина : 8 бит
Тип развёртки : Прогрессивная
Бит/(Пиксели*Кадры) : 0.260
Размер потока : 2,85 Гбайт (88%)
Библиотека кодирования : x264 core 133 r2334 a3ac64b
Настройки программы : cabac=1 / ref=9 / deblock=1:-1:-1 / analyse=0x3:0x113 / me=umh / subme=10 / psy=1 / psy_rd=1.00:0.15 / mixed_ref=1 / me_range=24 / chroma_me=1 / trellis=2 / 8x8dct=1 / cqm=0 / deadzone=21,11 / fast_pskip=0 / chroma_qp_offset=-3 / threads=6 / lookahead_threads=1 / sliced_threads=0 / nr=0 / decimate=0 / interlaced=0 / bluray_compat=0 / constrained_intra=0 / bframes=8 / b_pyramid=2 / b_adapt=2 / b_bias=0 / direct=3 / weightb=0 / open_gop=0 / weightp=2 / keyint=230 / keyint_min=23 / scenecut=40 / intra_refresh=0 / rc_lookahead=60 / rc=2pass / mbtree=0 / bitrate=4199 / ratetol=50.0 / qcomp=0.60 / qpmin=0 / qpmax=69 / qpstep=4 / cplxblur=20.0 / qblur=0.5 / vbv_maxrate=50000 / vbv_bufsize=62500 / nal_hrd=none / ip_ratio=1.40 / pb_ratio=1.30 / aq=1:1.00
Язык : English
Default : Да
Forced : Нет

Аудио
Идентификатор : 2
Формат : AC-3
Формат/Информация : Audio Coding 3
Расширение режима : CM (complete main)
Параметр Endianness формата : Big
Идентификатор кодека : A_AC3
Продолжительность : 1 ч. 42 м.
Вид битрейта : Постоянный
Битрейт : 448 Кбит/сек
Каналы : 6 каналов
Расположение каналов : Front: L C R, Side: L R, LFE
Частота : 48,0 КГц
Битовая глубина : 16 бит
Метод сжатия : С потерями
Размер потока : 327 Мбайт (10%)
Заголовок : DUB (R5)
Язык : Russian
Default : Да
Forced : Нет


загрузка...
Правила, инструкции, FAQ!!!
Торрент  Добавлен [10 июл 2013, 00:05] Скачать торрент
Скачать торрент
[ Размер 20.98 КБ / Просмотров 6 ]

Статус  
 
Размер  4.02 ГБ
Приватный: Нет (DHT включён)
.torrent скачан  0
Как залить торрент? | Как скачать Torrent? | Как смотреть и слушать онлайн?  


     Отправить личное сообщение
   
Страница 1 из 1
Показать сообщения за:  Поле сортировки  
Начать новую тему Ответить на тему

   Похожие торренты   Автор   Ответы   Просмотры   Последнее сообщение 
В этой теме нет новых непрочитанных сообщений. Скачать торрент Проверен [iPod] Трилогия: Миллениум (Девушка с татуировкой дракона , Девушка, которая играла с огнём, Девушка, которая взрывала воздушные замки) / The Girl with the Dragon Tattoo, The Girl Who Played with Fire, The Girl Who Kicked the Hornet’s Nest[2009 г.,Тр

в форуме Фильмы для iPod, iPhone, iPad, Размер: 1.83 ГБ, Здоровье: 100%

Anonymous

0
32|10

167
0

12 май 2015, 00:07

Anonymous Перейти к последнему сообщению

В этой теме нет новых непрочитанных сообщений. Скачать торрент Проверен Парни из Джерси / Jersey Boys (2014) HDRip | Р

в форуме Драмы, Мелодрамы, Размер: 1.45 ГБ, Здоровье: 100%

Anonymous

0
86|41

53
97

15 ноя 2014, 15:50

Anonymous Перейти к последнему сообщению

В этой теме нет новых непрочитанных сообщений. Скачать торрент Проверен Zoё Elizabeth Sugg / Сагг, Зои - Girl Online / Девушка Online; Girl Online: On Tour / Девушка Online: в турне [2016, PDF/DjVu/FB2, RUS]

в форуме Зарубежная литература (XX и XXI век), Размер: 34.9 МБ, Здоровье: 0%

Anonymous

0
0|0

3
0

08 сен 2016, 19:44

Anonymous Перейти к последнему сообщению

В этой теме нет новых непрочитанных сообщений. Скачать торрент Проверен Девушка из Дании / The Danish Girl (2015) BDRip | D | Лицензия

в форуме Драмы, Мелодрамы, Размер: 1.46 ГБ, Здоровье: 100%

Гость

0
32|0

125
3

22 апр 2016, 21:15

Гость Перейти к последнему сообщению

В этой теме нет новых непрочитанных сообщений. Скачать торрент Проверен Девушка из Дании / The Danish Girl (2015) BDRip 1080p | Лицензия

в форуме 720p | 1080p, Размер: 12.14 ГБ, Здоровье: 100%

Гость

0
42|32

73
53

22 апр 2016, 21:05

Гость Перейти к последнему сообщению



Сейчас этот форум просматривают: нет зарегистрированных пользователей и гости: 1


Вы не можете начинать темы
Вы не можете отвечать на сообщения
Вы не можете редактировать свои сообщения
Вы не можете удалять свои сообщения
Вы не можете добавлять вложения

Перейти:  

!ВНИМАНИЕ!
 Ресурс не предоставляет электронные версии произведений, а занимается лишь коллекционированием и каталогизацией ссылок, присылаемых и публикуемых на форуме нашими читателями. Если вы являетесь правообладателем какого-либо представленного материала и не желаете чтобы ссылка на него находилась в нашем каталоге, свяжитесь с нами и мы незамедлительно удалим её. Файлы для обмена на трекере предоставлены пользователями сайта, и администрация не несёт ответственности за их содержание. Просьба не заливать файлы, защищенные авторскими правами, а также файлы нелегального содержания!