На всех торрентах на трекере установлена скидка на скачивание в размере 100 процентов(а).
 Возможность скачивания торрента НЕ зависит от ограничений при низком ратио, низком аплоаде, требуемом ратио или требуемом аплоаде.


Начать новую тему Ответить на тему
Статистика раздачи
Размер: 7.75 ГБ | Добавлен: 08 июл 2013, 17:13 | Скачали: 0
Сидеров: 0  [0 байт/сек]    Личеров: 0  [0 байт/сек]
Пред. тема | След. тема 

Автор
Сообщение

СообщениеДобавлено: 08 июл 2013, 17:13 

Название: Национальная безопасность
Оригинальное название: National Security
Год выхода: 2003
Жанр: боевик, триллер, комедия, криминал
Режиссер: Деннис Дуган

В ролях: Мартин Лоуренс, Стив Зан, Колм Фиор, Билл Дьюк, Эрик Робертс, Тимоти Басфилд, Робин Ли, Мэтт МакКой, Бретт Каллен, Клио Кинг

О фильме:
Стать полицейским - мечта многих мальчишек. Стать офицером - мечта многих курсантов полицейской академии. А быть офицером службы «Национальной безопасности» означает только одно - быть неудачником. Эрл Монтгомери очутился там за систематическое нарушение дисциплины - его сочли недостойным носить звание полицейского. Незадолго до этого он подставил Хэнка Рафферти. По иронии судьбы они становятся напарниками, и отношения между ними скорее напоминают боевые действия. Своими выездами на дежурство они умудряются «достать» весь город. И теперь в городе найдется немало желающих «замочить» эту парочку. Если только бравые блюстители порядка первыми не перебьют друг друга!



Выпущено: США
Студия: Columbia Pictures
Продолжительность: 01:28:20
Перевод: Дублированный + Оригинал


Кодек: x264
Качество: BDRip (источник: Blu-ray Disc)
Видео: 1920x1040 (1,85:1), 23.976 fps, 11291 kbps
Аудио #1: AC-3, 6 ch, 640 kbps (Rus)
Аудио #2: AC-3, 6 ch, 640 kbps (Eng)
Субтитры: Русские, Английские


Общее
Уникальный идентификатор : 229299740198317616514700757124077101412 (0xAC818609EAA67835B503D834D338A164)
Полное имя : E:National.Security.2003.BDRip.1080p.Rus.Eng.mkv
Формат : Matroska
Версия формата : Version 4 / Version 2
Размер файла : 7,75 Гбайт
Продолжительность : 1 ч. 28 м.
Общий поток : 12,6 Мбит/сек
Название фильма : Национальная безопасность / National Security (2003)
Дата кодирования : UTC 2013-07-08 12:16:56
Программа кодирования : mkvmerge v6.3.0 ('You can't stop me!') built on Jun 28 2013 20:09:41
Библиотека кодирования : libebml v1.3.0 + libmatroska v1.4.0

Видео
Идентификатор : 1
Формат : AVC
Формат/Информация : Advanced Video Codec
Профиль формата : High@L4.1
Параметр CABAC формата : Да
Параметр ReFrames формата : 4 кадра
Идентификатор кодека : V_MPEG4/ISO/AVC
Продолжительность : 1 ч. 28 м.
Битрейт : 11,3 Мбит/сек
Ширина : 1920 пикселей
Высота : 1040 пикселей
Соотношение сторон : 1,85:1
Режим частоты кадров : Постоянный
Частота кадров : 23,976 кадра/сек
Цветовое пространство : YUV
Субдискретизация насыщенности : 4:2:0
Битовая глубина : 8 бит
Тип развёртки : Прогрессивная
Бит/(Пиксели*Кадры) : 0.236
Размер потока : 6,81 Гбайт (88%)
Заголовок : Release by N1NT3NDO
Библиотека кодирования : x264 core 133 r2334 a3ac64b
Настройки программы : cabac=1 / ref=4 / deblock=1:-3:-3 / analyse=0x3:0x113 / me=umh / subme=11 / psy=1 / psy_rd=1.00:0.00 / mixed_ref=1 / me_range=32 / chroma_me=1 / trellis=2 / 8x8dct=1 / cqm=0 / deadzone=21,11 / fast_pskip=0 / chroma_qp_offset=-2 / threads=12 / lookahead_threads=1 / sliced_threads=0 / nr=0 / decimate=0 / interlaced=0 / bluray_compat=0 / constrained_intra=0 / bframes=5 / b_pyramid=2 / b_adapt=2 / b_bias=0 / direct=2 / weightb=1 / open_gop=0 / weightp=2 / keyint=240 / keyint_min=23 / scenecut=40 / intra_refresh=0 / rc=2pass / mbtree=0 / bitrate=11291 / ratetol=1.0 / qcomp=0.60 / qpmin=0 / qpmax=69 / qpstep=4 / cplxblur=20.0 / qblur=0.5 / ip_ratio=1.40 / pb_ratio=1.30 / aq=1:0.70
Язык : English
Default : Да
Forced : Нет

Аудио #1
Идентификатор : 2
Формат : AC-3
Формат/Информация : Audio Coding 3
Расширение режима : CM (complete main)
Параметр Endianness формата : Big
Идентификатор кодека : A_AC3
Продолжительность : 1 ч. 28 м.
Вид битрейта : Постоянный
Битрейт : 640 Кбит/сек
Каналы : 6 каналов
Расположение каналов : Front: L C R, Side: L R, LFE
Частота : 48,0 КГц
Битовая глубина : 16 бит
Метод сжатия : С потерями
Размер потока : 404 Мбайт (5%)
Заголовок : Rus
Язык : Russian
Default : Да
Forced : Нет

Аудио #2
Идентификатор : 3
Формат : AC-3
Формат/Информация : Audio Coding 3
Расширение режима : CM (complete main)
Параметр Endianness формата : Big
Идентификатор кодека : A_AC3
Продолжительность : 1 ч. 28 м.
Вид битрейта : Постоянный
Битрейт : 640 Кбит/сек
Каналы : 6 каналов
Расположение каналов : Front: L C R, Side: L R, LFE
Частота : 48,0 КГц
Битовая глубина : 16 бит
Метод сжатия : С потерями
Размер потока : 404 Мбайт (5%)
Заголовок : Eng
Язык : English
Default : Нет
Forced : Нет

Текст #1
Идентификатор : 4
Формат : UTF-8
Идентификатор кодека : S_TEXT/UTF8
Идентификатор кодека/Информация : UTF-8 Plain Text
Заголовок : Rus
Язык : Russian
Default : Нет
Forced : Нет

Текст #2
Идентификатор : 5
Формат : UTF-8
Идентификатор кодека : S_TEXT/UTF8
Идентификатор кодека/Информация : UTF-8 Plain Text
Заголовок : Eng
Язык : English
Default : Нет
Forced : Нет

Меню
00:00:00.000 : :Chapter 01
00:05:13.229 : :Chapter 02
00:10:40.222 : :Chapter 03
00:14:48.470 : :Chapter 04
00:19:17.656 : :Chapter 05
00:25:22.103 : :Chapter 06
00:30:30.954 : :Chapter 07
00:38:21.799 : :Chapter 08
00:42:06.106 : :Chapter 09
00:46:42.883 : :Chapter 10
00:52:32.649 : :Chapter 11
00:58:30.840 : :Chapter 12
01:04:38.541 : :Chapter 13
01:08:49.291 : :Chapter 14
01:14:16.535 : :Chapter 15
01:21:11.950 : :Chapter 16
x264 [info]: frame I:1215 Avg QP:18.29 size:196970
x264 [info]: frame P:31934 Avg QP:20.91 size: 89763
x264 [info]: frame B:93932 Avg QP:22.56 size: 46510
загрузка...
Правила, инструкции, FAQ!!!
Торрент  Добавлен [08 июл 2013, 17:13] Скачать торрент
Скачать торрент
[ Размер 19.92 КБ / Просмотров 15 ]

Статус  
 
Размер  7.75 ГБ
Приватный: Нет (DHT включён)
.torrent скачан  0
Как залить торрент? | Как скачать Torrent? | Как смотреть и слушать онлайн?  


     Отправить личное сообщение
   
Страница 1 из 1
Показать сообщения за:  Поле сортировки  
Начать новую тему Ответить на тему

   Похожие торренты   Автор   Ответы   Просмотры   Последнее сообщение 
В этой теме нет новых непрочитанных сообщений. Скачать торрент Национальная безопасность / National Security (2003) BDRip

в форуме Боевики, Размер: 1.46 ГБ, Здоровье: 0%

Anonymous

0
0|0

58
0

06 апр 2014, 12:23

Anonymous Перейти к последнему сообщению

В этой теме нет новых непрочитанных сообщений. Скачать торрент Национальная безопасность / National Security (2003) BDRip 720p | D, P, A

в форуме 720p | 1080p, Размер: 4.37 ГБ, Здоровье: 100%

Anonymous

0
15|3

32
94

06 апр 2014, 12:20

Anonymous Перейти к последнему сообщению

В этой теме нет новых непрочитанных сообщений. Скачать торрент Проверен Переполох в общаге / National Lampoon Presents Dorm Daze (2003) BDRip 1080p | D, P2, A

в форуме 720p | 1080p, Размер: 6.48 ГБ, Здоровье: 100%

Anonymous

0
14|0

22
67

21 май 2014, 06:19

Anonymous Перейти к последнему сообщению

В этой теме нет новых непрочитанных сообщений. Скачать торрент Проверен Santana - Shaman (2003) [MLP 5.1, 2.0 96/24 |DVD-Audio] <National music>

в форуме DVD-Audio, Размер: 6.66 ГБ, Здоровье: 20%

Anonymous

0
43|213

68
5

25 янв 2015, 13:03

Anonymous Перейти к последнему сообщению

В этой теме нет новых непрочитанных сообщений. Скачать торрент Проверен Люди Икс 2 / X2 (2003) BDRip 1080p

в форуме 720p | 1080p, Размер: 6.94 ГБ, Здоровье: 100%

Anonymous

0
9|7

39
34

29 окт 2014, 23:48

Anonymous Перейти к последнему сообщению



Сейчас этот форум просматривают: нет зарегистрированных пользователей и гости: 5


Вы не можете начинать темы
Вы не можете отвечать на сообщения
Вы не можете редактировать свои сообщения
Вы не можете удалять свои сообщения
Вы не можете добавлять вложения

Перейти:  

!ВНИМАНИЕ!
 Ресурс не предоставляет электронные версии произведений, а занимается лишь коллекционированием и каталогизацией ссылок, присылаемых и публикуемых на форуме нашими читателями. Если вы являетесь правообладателем какого-либо представленного материала и не желаете чтобы ссылка на него находилась в нашем каталоге, свяжитесь с нами и мы незамедлительно удалим её. Файлы для обмена на трекере предоставлены пользователями сайта, и администрация не несёт ответственности за их содержание. Просьба не заливать файлы, защищенные авторскими правами, а также файлы нелегального содержания!