На всех торрентах на трекере установлена скидка на скачивание в размере 100 процентов(а).
 Возможность скачивания торрента НЕ зависит от ограничений при низком ратио, низком аплоаде, требуемом ратио или требуемом аплоаде.


Начать новую тему Ответить на тему
Статистика раздачи
Размер: 11.92 ГБ | Добавлен: 08 июл 2013, 16:54 | Скачали: 0
Сидеров: 0  [0 байт/сек]    Личеров: 0  [0 байт/сек]
Пред. тема | След. тема 

Автор
Сообщение

СообщениеДобавлено: 08 июл 2013, 16:54 

Название: Полёт Феникса
Оригинальное название: Flight of the Phoenix
Год выпуска: 2004
Жанр: Боевик, триллер, драма, приключения
Выпущено: США, 20th Century Fox Film Corporation, Aldrich Group, Davis Entertainment, Optional Pictures
Режиссер: Джон Мур

В ролях: Деннис Куэйд, Джованни Рибизи, Миранда Отто, Тайриз Гибсон, Хью Лори, Джаред Падалеки, Тони Карран, Стикки Фингаз, Джейкоб Варгас, Скотт Майкл Кэмпбелл, Кеворк Маликян

О фильме: Действие фильма разворачивается в монгольской пустыне, в самом сердце которой терпит крушение грузовой самолёт, перевозящий нефтяных вахтовиков. Они возвращались с месторождения, которое перестало приносить прибыль и было закрыто. Решение компании выполнял командир команды самолёта. Таким образом, назад он вёз озлобленных на него и компанию безработных нефтяников. После крушения, поняв, что помощи ждать неоткуда, команда решает самостоятельно построить самолёт и долететь до Пекина, пока жажда, солнце и противоречия между ними не доконали их окончательно…

Качество: BDRip 1080p
Размер: 11.92 ГБ
Продолжительность: 01:52:57

Видео: MPEG-4 AVC, 9095 Кбит/с, 1920x818
Аудио 1: русский, 48 kHz, AC3, 6 ch, 384 kbps avg, [Дублированный]
Аудио 2: русский, 48 kHz, DTS, 6 ch, 1509 kbps avg, Tycoon [Профессиональный многоголосый]
Аудио 3: русский, 48 kHz, AC3, 6 ch, 384 kbps avg, Gemini [Профессиональный многоголосый]
Аудио 4: украинский, 48 kHz, AC3, 1 ch, 192 kbps avg, 1+1 [Профессиональный многоголосый]
Аудио 5: русский, 48 kHz, DTS, 6 ch, 1509 kbps avg, Алексей Попов [Авторский]
Аудио 6: английский, 48 kHz, DTS, 6 ch, 1509 kbps avg, [Оригинал]
Аудио 7: английский, 48 kHz, AC3, 2 ch, 224 kbps avg, [Комментарий]
Субтитры: русские
Субтитры: английские





Общее
Уникальный идентификатор : 180897056073882211693067888210665540085 (0x881781768009488CA0AC7AFD42BC09F5)
Полное имя : E:VideoPolet.Feniksa.2004.x264.BDRip.1080p.mkv
Формат : Matroska
Версия формата : Version 4 / Version 2
Размер файла : 11,9 Гбайт
Продолжительность : 1 ч. 52 м.
Общий поток : 15,1 Мбит/сек
Название фильма : Полет Феникса / Flight of the Phoenix / 2004 / BDRip -- STarankov
Дата кодирования : UTC 2013-07-08 10:27:19
Программа кодирования : mkvmerge v6.3.0 ('You can't stop me!') built on Jun 28 2013 20:09:41
Библиотека кодирования : libebml v1.3.0 + libmatroska v1.4.0

Видео
Идентификатор : 1
Формат : AVC
Формат/Информация : Advanced Video Codec
Профиль формата : High@L4.1
Параметр CABAC формата : Да
Параметр ReFrames формата : 5 кадров
Идентификатор кодека : V_MPEG4/ISO/AVC
Продолжительность : 1 ч. 52 м.
Битрейт : 9095 Кбит/сек
Ширина : 1920 пикселей
Высота : 818 пикселей
Соотношение сторон : 2,35:1
Режим частоты кадров : Постоянный
Частота кадров : 23,976 кадра/сек
Цветовое пространство : YUV
Субдискретизация насыщенности : 4:2:0
Битовая глубина : 8 бит
Тип развёртки : Прогрессивная
Бит/(Пиксели*Кадры) : 0.242
Размер потока : 7,18 Гбайт (60%)
Библиотека кодирования : x264 core 133 r2334 a3ac64b
Настройки программы : cabac=1 / ref=5 / deblock=1:-1:-1 / analyse=0x3:0x113 / me=umh / subme=10 / psy=1 / psy_rd=1.00:0.15 / mixed_ref=1 / me_range=24 / chroma_me=1 / trellis=2 / 8x8dct=1 / cqm=0 / deadzone=21,11 / fast_pskip=0 / chroma_qp_offset=-3 / threads=6 / lookahead_threads=1 / sliced_threads=0 / nr=0 / decimate=1 / interlaced=0 / bluray_compat=0 / constrained_intra=0 / bframes=8 / b_pyramid=2 / b_adapt=2 / b_bias=0 / direct=1 / weightb=0 / open_gop=0 / weightp=2 / keyint=230 / keyint_min=23 / scenecut=40 / intra_refresh=0 / rc_lookahead=60 / rc=crf / mbtree=0 / crf=20.5 / qcomp=0.60 / qpmin=0 / qpmax=69 / qpstep=4 / vbv_maxrate=50000 / vbv_bufsize=62500 / crf_max=0.0 / nal_hrd=none / ip_ratio=1.40 / pb_ratio=1.30 / aq=1:1.00
Язык : English
Default : Да
Forced : Нет

Аудио #1
Идентификатор : 2
Формат : AC-3
Формат/Информация : Audio Coding 3
Расширение режима : CM (complete main)
Параметр Endianness формата : Big
Идентификатор кодека : A_AC3
Продолжительность : 1 ч. 52 м.
Вид битрейта : Постоянный
Битрейт : 384 Кбит/сек
Каналы : 6 каналов
Расположение каналов : Front: L C R, Side: L R, LFE
Частота : 48,0 КГц
Битовая глубина : 16 бит
Метод сжатия : С потерями
Размер потока : 310 Мбайт (3%)
Заголовок : DUB
Язык : Russian
Default : Да
Forced : Нет

Аудио #2
Идентификатор : 3
Формат : DTS
Формат/Информация : Digital Theater Systems
Режим : 16
Параметр Endianness формата : Big
Идентификатор кодека : A_DTS
Продолжительность : 1 ч. 52 м.
Вид битрейта : Постоянный
Битрейт : 1509 Кбит/сек
Каналы : 6 каналов
Расположение каналов : Front: L C R, Side: L R, LFE
Частота : 48,0 КГц
Битовая глубина : 24 бит
Метод сжатия : С потерями
Размер потока : 1,19 Гбайт (10%)
Заголовок : MVO (Tycoon)
Язык : Russian
Default : Нет
Forced : Нет

Аудио #3
Идентификатор : 4
Формат : AC-3
Формат/Информация : Audio Coding 3
Расширение режима : CM (complete main)
Параметр Endianness формата : Big
Идентификатор кодека : A_AC3
Продолжительность : 1 ч. 52 м.
Вид битрейта : Постоянный
Битрейт : 384 Кбит/сек
Каналы : 6 каналов
Расположение каналов : Front: L C R, Side: L R, LFE
Частота : 48,0 КГц
Битовая глубина : 16 бит
Метод сжатия : С потерями
Размер потока : 310 Мбайт (3%)
Заголовок : MVO (Gemini)
Язык : Russian
Default : Нет
Forced : Нет

Аудио #4
Идентификатор : 5
Формат : AC-3
Формат/Информация : Audio Coding 3
Расширение режима : CM (complete main)
Параметр Endianness формата : Big
Идентификатор кодека : A_AC3
Продолжительность : 1 ч. 52 м.
Вид битрейта : Постоянный
Битрейт : 192 Кбит/сек
Каналы : 1 канал
Расположение каналов : Front: C
Частота : 48,0 КГц
Битовая глубина : 16 бит
Метод сжатия : С потерями
Размер потока : 155 Мбайт (1%)
Заголовок : MVO (1+1)
Язык : Ukrainian
Default : Нет
Forced : Нет

Аудио #5
Идентификатор : 6
Формат : DTS
Формат/Информация : Digital Theater Systems
Режим : 16
Параметр Endianness формата : Big
Идентификатор кодека : A_DTS
Продолжительность : 1 ч. 52 м.
Вид битрейта : Постоянный
Битрейт : 1509 Кбит/сек
Каналы : 6 каналов
Расположение каналов : Front: L C R, Side: L R, LFE
Частота : 48,0 КГц
Битовая глубина : 24 бит
Метод сжатия : С потерями
Размер потока : 1,19 Гбайт (10%)
Заголовок : AVO (Алексей Попов)
Язык : Russian
Default : Нет
Forced : Нет

Аудио #6
Идентификатор : 7
Формат : DTS
Формат/Информация : Digital Theater Systems
Режим : 16
Параметр Endianness формата : Big
Идентификатор кодека : A_DTS
Продолжительность : 1 ч. 52 м.
Вид битрейта : Постоянный
Битрейт : 1509 Кбит/сек
Каналы : 6 каналов
Расположение каналов : Front: L C R, Side: L R, LFE
Частота : 48,0 КГц
Битовая глубина : 24 бит
Метод сжатия : С потерями
Размер потока : 1,19 Гбайт (10%)
Заголовок : Original
Язык : English
Default : Нет
Forced : Нет

Аудио #7
Идентификатор : 8
Формат : AC-3
Формат/Информация : Audio Coding 3
Расширение режима : CM (complete main)
Параметр Endianness формата : Big
Идентификатор кодека : A_AC3
Продолжительность : 1 ч. 52 м.
Вид битрейта : Постоянный
Битрейт : 224 Кбит/сек
Каналы : 2 канала
Расположение каналов : Front: L R
Частота : 48,0 КГц
Битовая глубина : 16 бит
Метод сжатия : С потерями
Размер потока : 181 Мбайт (1%)
Заголовок : Commentary
Язык : English
Default : Нет
Forced : Нет

Текст #1
Идентификатор : 9
Формат : UTF-8
Идентификатор кодека : S_TEXT/UTF8
Идентификатор кодека/Информация : UTF-8 Plain Text
Заголовок : русский
Язык : Russian
Default : Нет
Forced : Нет

Текст #2
Идентификатор : 10
Формат : UTF-8
Идентификатор кодека : S_TEXT/UTF8
Идентификатор кодека/Информация : UTF-8 Plain Text
Заголовок : английский
Default : Нет
Forced : Нет


загрузка...
Правила, инструкции, FAQ!!!
Торрент  Добавлен [08 июл 2013, 16:54] Скачать торрент
Скачать торрент
[ Размер 30.21 КБ / Просмотров 8 ]

Статус  
 
Размер  11.92 ГБ
Приватный: Нет (DHT включён)
.torrent скачан  0
Как залить торрент? | Как скачать Torrent? | Как смотреть и слушать онлайн?  


     Отправить личное сообщение
   
Страница 1 из 1
Показать сообщения за:  Поле сортировки  
Начать новую тему Ответить на тему

   Похожие торренты   Автор   Ответы   Просмотры   Последнее сообщение 
В этой теме нет новых непрочитанных сообщений. Скачать торрент Проверен Полет навигатора / Flight of the Navigator (1986) BDRip [H.264]

в форуме Детское, Семейное кино, Размер: 3.07 ГБ, Здоровье: 100%

Гость

0
19|2

87
3

02 апр 2016, 08:47

Гость Перейти к последнему сообщению

В этой теме нет новых непрочитанных сообщений. Скачать торрент Гарри Поттер и орден Феникса / Harry Potter and the Order of the Phoenix (Дэвид Йейтс / David Yates) [2007 г., фэнтези, приключения, семейный, BDRip] Dub

в форуме Фантастика, Фэнтези, Размер: 1.46 ГБ, Здоровье: 100%

Anonymous

0
34|11

43
0

02 апр 2014, 12:07

Anonymous Перейти к последнему сообщению

В этой теме нет новых непрочитанных сообщений. Скачать торрент Гарри Поттер и Орден Феникса / Harry Potter and the Order of the Phoenix (Дэвид Йэтс / David Yates) [2007, Великобритания, Фэнтези, Приключения, Семейный, BDRip-AVC] Dub (CEE) + DVO (Гланц и Королева) + AVO (С. Рябов) + Original + Subs (Rus, Eng)

в форуме 720p | 1080p, Размер: 3.64 ГБ, Здоровье: 100%

Anonymous

0
56|19

36
0

13 фев 2014, 06:32

Anonymous Перейти к последнему сообщению

В этой теме нет новых непрочитанных сообщений. Скачать торрент Проверен Deep Purple: Phoenix Rising [2011, Rock, Documentary, BDRip 1080p] rus sub

в форуме Концерты (HD-Video), Размер: 9.2 ГБ, Здоровье: 100%

Anonymous

0
5|1

18
0

23 окт 2016, 19:42

Anonymous Перейти к последнему сообщению

В этой теме нет новых непрочитанных сообщений. Скачать торрент Проверен (Hard Rock) Flight Of Fire - Path Of The Phoenix - 2016, MP3, 320 kbps

в форуме Classic Rock & Hard Rock, Размер: 62.85 МБ, Здоровье: 0%

Anonymous

0
0|0

0
0

14 ноя 2016, 20:49

Anonymous Перейти к последнему сообщению



Сейчас этот форум просматривают: нет зарегистрированных пользователей и гости: 1


Вы не можете начинать темы
Вы не можете отвечать на сообщения
Вы не можете редактировать свои сообщения
Вы не можете удалять свои сообщения
Вы не можете добавлять вложения

Перейти:  

!ВНИМАНИЕ!
 Ресурс не предоставляет электронные версии произведений, а занимается лишь коллекционированием и каталогизацией ссылок, присылаемых и публикуемых на форуме нашими читателями. Если вы являетесь правообладателем какого-либо представленного материала и не желаете чтобы ссылка на него находилась в нашем каталоге, свяжитесь с нами и мы незамедлительно удалим её. Файлы для обмена на трекере предоставлены пользователями сайта, и администрация не несёт ответственности за их содержание. Просьба не заливать файлы, защищенные авторскими правами, а также файлы нелегального содержания!