На всех торрентах на трекере установлена скидка на скачивание в размере 100 процентов(а).
 Возможность скачивания торрента НЕ зависит от ограничений при низком ратио, низком аплоаде, требуемом ратио или требуемом аплоаде.


Начать новую тему Ответить на тему
Статистика раздачи
Размер: 7.95 ГБ | Добавлен: 06 июл 2013, 17:51 | Скачали: 0
Сидеров: 0  [0 байт/сек]    Личеров: 0  [0 байт/сек]
Пред. тема | След. тема 

Автор
Сообщение

СообщениеДобавлено: 06 июл 2013, 17:51 


Информация о фильме
    Русское название: Мертв по прибытии
    Оригинальное название: D.O.A.
    Год выхода: 1988
    Жанр: Триллер, детектив
    Режиссер: Аннабел Джэнкел, Рокки Мортон
    Выпущено: США
    Продолжительность: 01:37:32
    Перевод: Дублированный, Многоголосый закадровый, Одноголосый закадровый (А. Гаврилов)
    В ролях: Деннис Куэйд, Мег Райан, Шарлотта Рэмплинг, Дэниел Стерн, Джейн Качмарек, Кристофер Ним, Робин Джонсон, Роберт Неппер, Джей Пэттерсон, Брайон Джеймс


Сюжет фильма
    Иногда человек узнает, что мертв, за несколько часов до гибели. Как профессор колледжа Декстер Корнелл, который в один жуткий момент обнаруживает, что отравлен медленно действующим ядом и обречен на мучительную смерть через 24 часа.
    Мотивов преступления нет. Есть лишь неукротимая жажда найти за эти сутки своего убийцу и призвать его к ответу. Маловато времени, но живому мертвецу терять нечего: он не будет церемониться на своем страшном пути к правде... и смерти. Отсчет пошел.


Файл
    Качество: BDRip 1080p (DVD9) (исходник Blu-ray Remux)
    Видео: 1920x1038, 10194 Кбит/сек, 23,976 кадр/сек, AVC, x264, High@L4.1, 1.85:1, 0.213 Бит/[Пиксели*Кадры], 2pass
    Аудио 1: AC-3, 192 Кбит/сек, 2 канала(ов), 48,0 КГц - Дублированный / Русский
    Аудио 2: AC-3, 384 Кбит/сек, 6 канала(ов), 48,0 КГц - Многоголосый закадровый / Русский
    Аудио 3: AC-3, 448 Кбит/сек, 2 канала(ов), 48,0 КГц - Одноголосый закадровый (А. Гаврилов) / Русский
    Аудио 4: AC-3, 448 Кбит/сек, 2 канала(ов), 48,0 КГц - Оригинал / Английский
    Субтитры: Русские | Полные
    Чаптеры: Есть



Релиз Группа | Автор Рипа:



Format : Matroska
Format version : Version 4 / Version 2
File size : 7.95 GiB
Duration : 1h 37mn
Overall bit rate : 11.7 Mbps
Movie name : Мертв по прибытии.(1988).BDRip.1080p.(DVD9).[NoLimits-Team]
Encoded date : UTC 2013-07-06 13:13:28
Writing application : mkvmerge v6.3.0 ('You can't stop me!') built on Jun 28 2013 20:09:41
Writing library : libebml v1.3.0 + libmatroska v1.4.0

Video
ID : 1
Format : AVC
Format/Info : Advanced Video Codec
Format profile : High@L4.1
Format settings, CABAC : Yes
Format settings, ReFrames : 4 frames
Codec ID : V_MPEG4/ISO/AVC
Duration : 1h 37mn
Bit rate : 10.2 Mbps
Width : 1 920 pixels
Height : 1 038 pixels
Display aspect ratio : 1.85:1
Frame rate mode : Constant
Frame rate : 23.976 fps
Color space : YUV
Chroma subsampling : 4:2:0
Bit depth : 8 bits
Scan type : Progressive
Bits/(Pixel*Frame) : 0.213
Stream size : 6.78 GiB (85%)
Title : Мертв по прибытии.(1988).BDRip.1080p.(DVD9).[NoLimits-Team]
Writing library : x264 core 133 r2334 a3ac64b
Encoding settings : cabac=1 / ref=4 / deblock=1:-1:-1 / analyse=0x3:0x113 / me=umh / subme=11 / psy=1 / psy_rd=1.00:0.00 / mixed_ref=1 / me_range=64 / chroma_me=1 / trellis=2 / 8x8dct=1 / cqm=0 / deadzone=21,11 / fast_pskip=0 / chroma_qp_offset=-2 / threads=9 / lookahead_threads=2 / sliced_threads=0 / nr=0 / decimate=1 / interlaced=0 / bluray_compat=0 / constrained_intra=0 / bframes=12 / b_pyramid=2 / b_adapt=2 / b_bias=0 / direct=3 / weightb=1 / open_gop=0 / weightp=2 / keyint=240 / keyint_min=23 / scenecut=40 / intra_refresh=0 / rc_lookahead=60 / rc=2pass / mbtree=1 / bitrate=10194 / ratetol=2.0 / qcomp=0.60 / qpmin=0 / qpmax=51 / qpstep=4 / cplxblur=20.0 / qblur=0.5 / ip_ratio=1.40 / aq=1:1.00
Language : English
Default : Yes
Forced : No

Audio #1
ID : 2
Format : AC-3
Format/Info : Audio Coding 3
Mode extension : CM (complete main)
Format settings, Endianness : Big
Codec ID : A_AC3
Duration : 1h 37mn
Bit rate mode : Constant
Bit rate : 192 Kbps
Channel(s) : 2 channels
Channel positions : Front: L R
Sampling rate : 48.0 KHz
Bit depth : 16 bits
Compression mode : Lossy
Stream size : 134 MiB (2%)
Title : Дублированный
Language : Russian
Default : Yes
Forced : No

Audio #2
ID : 3
Format : AC-3
Format/Info : Audio Coding 3
Mode extension : CM (complete main)
Format settings, Endianness : Big
Codec ID : A_AC3
Duration : 1h 37mn
Bit rate mode : Constant
Bit rate : 384 Kbps
Channel(s) : 6 channels
Channel positions : Front: L C R, Side: L R, LFE
Sampling rate : 48.0 KHz
Bit depth : 16 bits
Compression mode : Lossy
Stream size : 268 MiB (3%)
Title : Многоголосый закадровый
Language : Russian
Default : No
Forced : No

Audio #3
ID : 4
Format : AC-3
Format/Info : Audio Coding 3
Mode extension : CM (complete main)
Format settings, Endianness : Big
Codec ID : A_AC3
Duration : 1h 37mn
Bit rate mode : Constant
Bit rate : 448 Kbps
Channel(s) : 2 channels
Channel positions : Front: L R
Sampling rate : 48.0 KHz
Bit depth : 16 bits
Compression mode : Lossy
Stream size : 313 MiB (4%)
Title : Одноголосый закадровый (А. Гаврилов)
Language : Russian
Default : No
Forced : No

Audio #4
ID : 5
Format : AC-3
Format/Info : Audio Coding 3
Mode extension : CM (complete main)
Format settings, Endianness : Big
Codec ID : A_AC3
Duration : 1h 37mn
Bit rate mode : Constant
Bit rate : 448 Kbps
Channel(s) : 2 channels
Channel positions : Front: L R
Sampling rate : 48.0 KHz
Bit depth : 16 bits
Compression mode : Lossy
Stream size : 313 MiB (4%)
Title : Оригинал / Английский
Language : English
Default : No
Forced : No

Text
ID : 6
Format : UTF-8
Codec ID : S_TEXT/UTF8
Codec ID/Info : UTF-8 Plain Text
Title : Русские (полные)
Language : Russian
Default : No
Forced : No

Menu
00:00:00.000 : :Chapter 01
00:04:14.128 : :Chapter 02
00:11:19.095 : :Chapter 03
00:20:53.001 : :Chapter 04
00:34:22.393 : :Chapter 05
00:44:24.119 : :Chapter 06
00:50:35.114 : :Chapter 07
00:56:56.036 : :Chapter 08
01:02:53.519 : :Chapter 09
01:12:57.289 : :Chapter 10
01:21:50.196 : :Chapter 11
01:33:32.564 : :Chapter 12


загрузка...
Правила, инструкции, FAQ!!!
Торрент  Добавлен [06 июл 2013, 17:51] Скачать торрент
Скачать торрент
[ Размер 40.18 КБ / Просмотров 10 ]

Статус  
 
Размер  7.95 ГБ
Приватный: Нет (DHT включён)
.torrent скачан  0
Как залить торрент? | Как скачать Torrent? | Как смотреть и слушать онлайн?  


     Отправить личное сообщение
   
Страница 1 из 1
Показать сообщения за:  Поле сортировки  
Начать новую тему Ответить на тему

   Похожие торренты   Автор   Ответы   Просмотры   Последнее сообщение 
В этой теме нет новых непрочитанных сообщений. Скачать торрент Ни жив, ни мёртв / Half Past Dead (2002) BDRip 1080p | D, P

в форуме 720p | 1080p, Размер: 11.03 ГБ, Здоровье: 0%

Anonymous

0
0|0

21
0

03 янв 2014, 16:33

Anonymous Перейти к последнему сообщению

В этой теме нет новых непрочитанных сообщений. Скачать торрент Проверен Виллоу / Willow (1988) BDRip [1080p]

в форуме 720p | 1080p, Размер: 14.65 ГБ, Здоровье: 100%

Гость

0
58|1

30
1

11 дек 2014, 21:40

Гость Перейти к последнему сообщению

В этой теме нет новых непрочитанных сообщений. Скачать торрент Проверен Кровавый спорт / Bloodsport (1988) BDRip 1080p

в форуме 720p | 1080p, Размер: 7.75 ГБ, Здоровье: 100%

Anonymous

0
15|5

24
305

27 сен 2014, 19:52

Anonymous Перейти к последнему сообщению

В этой теме нет новых непрочитанных сообщений. Скачать торрент Проверен Замужем за мафией / Married to the Mob (1988) BDRip 1080p | D, P, P2, A

в форуме 720p | 1080p, Размер: 11.65 ГБ, Здоровье: 81%

Гость

0
27|33

35
36

18 ноя 2016, 21:42

Гость Перейти к последнему сообщению

В этой теме нет новых непрочитанных сообщений. Скачать торрент Проверен Кошмар на улице Вязов 6: Фредди мертв / Freddy's Dead: The Final Nightmare (1991) BDRip 720p от Leonardo and Scarabey

в форуме 720p | 1080p, Размер: 2.46 ГБ, Здоровье: 100%

Anonymous

0
4|0

29
168

17 авг 2014, 08:24

Anonymous Перейти к последнему сообщению



Сейчас этот форум просматривают: нет зарегистрированных пользователей и гости: 1


Вы не можете начинать темы
Вы не можете отвечать на сообщения
Вы не можете редактировать свои сообщения
Вы не можете удалять свои сообщения
Вы не можете добавлять вложения

Перейти:  

!ВНИМАНИЕ!
 Ресурс не предоставляет электронные версии произведений, а занимается лишь коллекционированием и каталогизацией ссылок, присылаемых и публикуемых на форуме нашими читателями. Если вы являетесь правообладателем какого-либо представленного материала и не желаете чтобы ссылка на него находилась в нашем каталоге, свяжитесь с нами и мы незамедлительно удалим её. Файлы для обмена на трекере предоставлены пользователями сайта, и администрация не несёт ответственности за их содержание. Просьба не заливать файлы, защищенные авторскими правами, а также файлы нелегального содержания!