На всех торрентах на трекере установлена скидка на скачивание в размере 100 процентов(а).
 Возможность скачивания торрента НЕ зависит от ограничений при низком ратио, низком аплоаде, требуемом ратио или требуемом аплоаде.


Начать новую тему Ответить на тему
Статистика раздачи
Размер: 5.95 ГБ | Добавлен: 04 июл 2013, 00:17 | Скачали: 0
Сидеров: 0  [0 байт/сек]    Личеров: 0  [0 байт/сек]
Пред. тема | След. тема 

Автор
Сообщение

СообщениеДобавлено: 04 июл 2013, 00:17 

Название: Ходят слухи...
Оригинальное название: Rumor Has It...
Год выхода: 2005
Жанр: комедия, драма, мелодрама
Режиссер: Роб Райнер

В фильме снимались: Кевин Костнер, Дженнифер Энистон, Ширли МакЛейн, Ричард Дженкинс, Марк Руффало, Кристофер МакДоналд, Стив Сандвосс, Мена Сувари, Майк Фогель, Роб Ланза, Лиза Ванчон, Тревор Сток

Вкратце:
Сара — главная героиня фильма, получила образование журналиста, но ей приходится писать некрологи в газете, она в замешательстве. Наконец-то Сара решила выйти замуж за своего друга, который уже давно делал ей предложение. Однако Сара до конца не может решить хочет ли она за него замуж. Чтобы хоть как-то отвлечься от этих мыслей, Сара уезжает домой на свадьбу своей сестры. Здесь она чувствует себя некомфортно, потому что вся её семья очень любит теннис, а сама Сара не очень-то понимает это занятие. В эти дни Сара узнаёт семейную тайну и это меняет её жизнь…



Страна: США, Германия, Австралия
Студия: Warner Bros., Village Roadshow Pictures, Section Eight, Spring Creek Productions, Munich Hoffmann-Media
Продолжительность: 01:36:45
Перевод: Дублированный, профессиональный (многоголосый закадровый)


Кодек: h.264
Качество: BDRip (720p)
Видео: 6968 Kбит/с, 1280x720, 23.976 кадр/с

Звук:
Аудио #1: Русский: 48 kHz, AC3, 3/2 (L,C,R,l,r) + LFE ch, ~384.00 kbps avg |Дубляж, R5|
Аудио #2: Русский: 48 kHz, AC3, 3/2 (L,C,R,l,r) + LFE ch, ~448.00 kbps avg |Многоголосый закадровый, Tycoon-Studio|
Аудио #3: Украинский: 48 kHz, AC3, 2/0 (L,R) ch, ~192.00 kbps avg |Двухголосый закадровый, Новый канал|
Аудио #4: Английский: 48 kHz, AC3, 3/2 (L,C,R,l,r) + LFE ch, ~640.00 kbps avg

Субтитры: Русские, английские

Полное имя : Rumor.Has.It.2005.720p.BluRay.AC3.Rus.Ukr.Eng.HDClub.mkv
Формат : Matroska
Версия формата : Version 4 / Version 2
Размер файла : 5,95 Гбайт
Продолжительность : 1 ч. 36 м.
Общий поток : 8807 Кбит/сек
Дата кодирования : UTC 2013-07-03 15:02:13
Программа кодирования : mkvmerge v6.1.0 ('Old Devil') built on Mar 2 2013 14:32:37
Библиотека кодирования : libebml v1.3.0 + libmatroska v1.4.0

Видео
Идентификатор : 1
Формат : AVC
Формат/Информация : Advanced Video Codec
Профиль формата : High@L4.1
Параметр CABAC формата : Да
Параметр ReFrames формата : 8 кадров
Идентификатор кодека : V_MPEG4/ISO/AVC
Продолжительность : 1 ч. 36 м.
Битрейт : 6968 Кбит/сек
Ширина : 1280 пикселей
Высота : 720 пикселей
Соотношение сторон : 16:9
Частота кадров : 23,976 кадра/сек
Цветовое пространство : YUV
Субдискретизация насыщенности : 4:2:0
Битовая глубина : 8 бит
Тип развёртки : Прогрессивная
Бит/(Пиксели*Кадры) : 0.315
Размер потока : 4,71 Гбайт (79%)
Заголовок : Rumor Has It x264-CRiSC
Библиотека кодирования : x264 core 80 r1373 4322f63
Настройки программы : cabac=1 / ref=8 / deblock=1:-3:-3 / analyse=0x3:0x113 / me=umh / subme=9 / psy=1 / psy_rd=1.2:0.0 / mixed_ref=1 / me_range=24 / chroma_me=1 / trellis=2 / 8x8dct=1 / cqm=0 / deadzone=21,11 / fast_pskip=1 / chroma_qp_offset=-2 / threads=3 / sliced_threads=0 / nr=0 / decimate=1 / mbaff=0 / constrained_intra=0 / bframes=6 / b_pyramid=2 / b_adapt=2 / b_bias=0 / direct=1 / wpredb=1 / wpredp=2 / keyint=250 / keyint_min=25 / scenecut=40 / rc=crf / mbtree=0 / crf=17.5 / qcomp=0.60 / qpmin=10 / qpmax=51 / qpstep=4 / ip_ratio=1.40 / pb_ratio=1.30 / aq=1:0.80
Язык : English

Аудио #1
Идентификатор : 2
Формат : AC-3
Формат/Информация : Audio Coding 3
Расширение режима : CM (complete main)
Идентификатор кодека : A_AC3
Продолжительность : 1 ч. 36 м.
Вид битрейта : Постоянный
Битрейт : 384 Кбит/сек
Каналы : 6 каналов
Расположение каналов : Front: L C R, Side: L R, LFE
Частота : 48,0 КГц
Битовая глубина : 16 бит
Метод сжатия : С потерями
Размер потока : 266 Мбайт (4%)
Заголовок : Dub
Язык : Russian

Аудио #2
Идентификатор : 3
Формат : AC-3
Формат/Информация : Audio Coding 3
Расширение режима : CM (complete main)
Идентификатор кодека : A_AC3
Продолжительность : 1 ч. 36 м.
Вид битрейта : Постоянный
Битрейт : 448 Кбит/сек
Каналы : 6 каналов
Расположение каналов : Front: L C R, Side: L R, LFE
Частота : 48,0 КГц
Битовая глубина : 16 бит
Метод сжатия : С потерями
Размер потока : 310 Мбайт (5%)
Заголовок : Tycoon-studio
Язык : Russian

Аудио #3
Идентификатор : 4
Формат : AC-3
Формат/Информация : Audio Coding 3
Расширение режима : CM (complete main)
Идентификатор кодека : A_AC3
Продолжительность : 1 ч. 36 м.
Вид битрейта : Постоянный
Битрейт : 192 Кбит/сек
Каналы : 2 канала
Расположение каналов : Front: L R
Частота : 48,0 КГц
Битовая глубина : 16 бит
Метод сжатия : С потерями
Размер потока : 133 Мбайт (2%)
Заголовок : Новый канал
Язык : Ukrainian

Аудио #4
Идентификатор : 5
Формат : AC-3
Формат/Информация : Audio Coding 3
Расширение режима : CM (complete main)
Идентификатор кодека : A_AC3
Продолжительность : 1 ч. 36 м.
Вид битрейта : Постоянный
Битрейт : 640 Кбит/сек
Каналы : 6 каналов
Расположение каналов : Front: L C R, Side: L R, LFE
Частота : 48,0 КГц
Битовая глубина : 16 бит
Метод сжатия : С потерями
Размер потока : 443 Мбайт (7%)
Заголовок : AC3 5.1 640 kbps
Язык : English

Текст #1
Идентификатор : 6
Формат : UTF-8
Идентификатор кодека : S_TEXT/UTF8
Идентификатор кодека/Информация : UTF-8 Plain Text
Заголовок : Tycoon-studio
Язык : Russian

Текст #2
Идентификатор : 7
Формат : UTF-8
Идентификатор кодека : S_TEXT/UTF8
Идентификатор кодека/Информация : UTF-8 Plain Text
Язык : Russian

Текст #3
Идентификатор : 8
Формат : UTF-8
Идентификатор кодека : S_TEXT/UTF8
Идентификатор кодека/Информация : UTF-8 Plain Text
Язык : English

Меню
00:00:00.000 : en:00:00:00.000
00:03:32.796 : en:00:03:32.796
00:09:04.794 : en:00:09:04.794
00:12:28.373 : en:00:12:28.373
00:15:02.276 : en:00:15:02.276
00:19:29.960 : en:00:19:29.960
00:23:40.461 : en:00:23:40.461
00:26:37.846 : en:00:26:37.846
00:30:24.364 : en:00:30:24.364
00:34:41.204 : en:00:34:41.204
00:39:34.998 : en:00:39:34.998
00:43:53.756 : en:00:43:53.756
00:49:56.577 : en:00:49:56.577
00:54:29.850 : en:00:54:29.850
00:59:19.055 : en:00:59:19.055
01:02:12.604 : en:01:02:12.604
01:06:19.642 : en:01:06:19.642
01:09:15.443 : en:01:09:15.443
01:11:30.995 : en:01:11:30.995
01:15:09.714 : en:01:15:09.714
01:19:29.723 : en:01:19:29.723
01:22:04.795 : en:01:22:04.795
01:26:07.162 : en:01:26:07.162
01:31:16.680 : en:01:31:16.680
01:32:47.395 : en:01:32:47.395
загрузка...
Правила, инструкции, FAQ!!!
Торрент  Добавлен [04 июл 2013, 00:17] Скачать торрент
Скачать торрент
[ Размер 15.46 КБ / Просмотров 4 ]

Статус  
 
Размер  5.95 ГБ
Приватный: Нет (DHT включён)
.torrent скачан  0
Как залить торрент? | Как скачать Torrent? | Как смотреть и слушать онлайн?  


     Отправить личное сообщение
   
Страница 1 из 1
Показать сообщения за:  Поле сортировки  
Начать новую тему Ответить на тему

   Похожие торренты   Автор   Ответы   Просмотры   Последнее сообщение 
В этой теме нет новых непрочитанных сообщений. Скачать торрент Проверен [DVDA][TR24][OF] The Carl Verheyen Band - Rumor Mill - 2005 (Fusion, Blues-Rock)

в форуме DTS CD / SACD-R, Размер: 3.12 ГБ, Здоровье: 100%

Anonymous

0
2|1

12
1

02 июл 2016, 01:35

Anonymous Перейти к последнему сообщению

В этой теме нет новых непрочитанных сообщений. Скачать торрент Проверен [TR24][OF] The Carl Verheyen Band - Rumor Mill - 2005 (Jazz, Jazz-Pop)

в форуме DTS CD / SACD-R, Размер: 2.95 ГБ, Здоровье: 60%

Anonymous

0
3|5

35
3

17 авг 2016, 15:19

Anonymous Перейти к последнему сообщению

В этой теме нет новых непрочитанных сообщений. Скачать торрент Проверен The Strat Pack: Live In Concert (2005) (Terry Shand, Geoff Kemplin) [2005, Rock, BDRip, 720p]

в форуме Концерты (HD-Video), Размер: 8.7 ГБ, Здоровье: 100%

Anonymous

0
1|0

1
0

23 окт 2016, 15:44

Anonymous Перейти к последнему сообщению

В этой теме нет новых непрочитанных сообщений. Скачать торрент Проверен (Pop) Анна Семенович - Слухи - 2008, MP3, 320 kbps

в форуме Отечественная музыка, Размер: 124.3 МБ, Здоровье: 100%

Anonymous

0
1|0

4
0

30 июл 2016, 14:48

Anonymous Перейти к последнему сообщению

В этой теме нет новых непрочитанных сообщений. Скачать торрент 9 рота (2005) BDRip 720p

в форуме 720p | 1080p, Размер: 7.91 ГБ, Здоровье: 0%

Anonymous

0
0|0

35
0

02 янв 2014, 18:04

Anonymous Перейти к последнему сообщению



Сейчас этот форум просматривают: нет зарегистрированных пользователей и гости: 2


Вы не можете начинать темы
Вы не можете отвечать на сообщения
Вы не можете редактировать свои сообщения
Вы не можете удалять свои сообщения
Вы не можете добавлять вложения

Перейти:  

!ВНИМАНИЕ!
 Ресурс не предоставляет электронные версии произведений, а занимается лишь коллекционированием и каталогизацией ссылок, присылаемых и публикуемых на форуме нашими читателями. Если вы являетесь правообладателем какого-либо представленного материала и не желаете чтобы ссылка на него находилась в нашем каталоге, свяжитесь с нами и мы незамедлительно удалим её. Файлы для обмена на трекере предоставлены пользователями сайта, и администрация не несёт ответственности за их содержание. Просьба не заливать файлы, защищенные авторскими правами, а также файлы нелегального содержания!