На всех торрентах на трекере установлена скидка на скачивание в размере 100 процентов(а).
 Возможность скачивания торрента НЕ зависит от ограничений при низком ратио, низком аплоаде, требуемом ратио или требуемом аплоаде.


Начать новую тему Ответить на тему
Статистика раздачи
Размер: 7.94 ГБ | Добавлен: 01 июл 2013, 10:06 | Скачали: 0
Сидеров: 0  [0 байт/сек]    Личеров: 0  [0 байт/сек]
Пред. тема | След. тема 

Автор
Сообщение

СообщениеДобавлено: 01 июл 2013, 10:06 


Информация о фильме
    Русское название: Пятое измерение
    Оригинальное название: Push
    Год выхода: 2009
    Жанр: Фантастика, боевик, триллер
    Режиссер: Пол МакГиган
    Выпущено: США, Канада
    Продолжительность: 01:51:20
    Перевод: Дублированный
    В ролях: Крис Эванс, Дакота Фаннинг, Камилла Белль, Клифф Кёртис, Джимон Хонсу, Кори Столл, Мэгги Сифф, Минг-На, Нат Муни, Скотт Майкл Кэмпбелл


Сюжет фильма
    Ник, американский эмигрант, обладает способностью к телекинезу. Он скрывается в Гонконге от могущественной организации, которая хочет эксплуатировать его дар в своих целях. Вскоре молодой человек встречает свою бывшую возлюбленную и знакомится с девочкой Кэсси, способной предсказывать будущее. Она видит, что только вместе они смогут выжить и нарушить планы зловещей корпорации...


Файл
    Качество: BDRip 1080p (DVD9) (исходник Blu-ray Disc)
    Видео: 1920x816, 8938 Кбит/сек, 24,000 кадр/сек, AVC, x264, High@L4.1, 2.35:1, 0.238 Бит/[Пиксели*Кадры], 2pass
    Аудио 1: AC-3, 640 Кбит/сек, 6 канала(ов), 48,0 КГц - Дублированный / Русский
    Аудио 2: AC-3, 640 Кбит/сек, 6 канала(ов), 48,0 КГц - Оригинал / Английский
    Субтитры: Русские | Полные
    Чаптеры: Есть



Релиз Группа | Автор Рипа:



Format : Matroska
Format version : Version 4 / Version 2
File size : 7.94 GiB
Duration : 1h 51mn
Overall bit rate : 10.2 Mbps
Movie name : Пятое измерение.(2009).BDRip.1080p.(DVD9).[NoLimits-Team]
Encoded date : UTC 2013-06-25 16:34:35
Writing application : mkvmerge v6.0.0 ('Coming Up For Air') built on Jan 20 2013 09:52:00
Writing library : libebml v1.3.0 + libmatroska v1.4.0

Video
ID : 1
Format : AVC
Format/Info : Advanced Video Codec
Format profile : High@L4.1
Format settings, CABAC : Yes
Format settings, ReFrames : 5 frames
Codec ID : V_MPEG4/ISO/AVC
Duration : 1h 51mn
Bit rate : 8 938 Kbps
Width : 1 920 pixels
Height : 816 pixels
Display aspect ratio : 2.35:1
Frame rate mode : Constant
Frame rate : 24.000 fps
Color space : YUV
Chroma subsampling : 4:2:0
Bit depth : 8 bits
Scan type : Progressive
Bits/(Pixel*Frame) : 0.238
Stream size : 6.79 GiB (85%)
Title : Пятое измерение.(2009).BDRip.1080p.(DVD9).[NoLimits-Team]
Writing library : x264 core 133 r2334 a3ac64b
Encoding settings : cabac=1 / ref=5 / deblock=1:0:0 / analyse=0x3:0x113 / me=umh / subme=11 / psy=1 / psy_rd=1.00:0.00 / mixed_ref=1 / me_range=64 / chroma_me=1 / trellis=2 / 8x8dct=1 / cqm=0 / deadzone=21,11 / fast_pskip=0 / chroma_qp_offset=-2 / threads=9 / lookahead_threads=2 / sliced_threads=0 / nr=0 / decimate=1 / interlaced=0 / bluray_compat=0 / constrained_intra=0 / bframes=12 / b_pyramid=2 / b_adapt=2 / b_bias=0 / direct=3 / weightb=1 / open_gop=0 / weightp=2 / keyint=240 / keyint_min=24 / scenecut=40 / intra_refresh=0 / rc_lookahead=60 / rc=2pass / mbtree=1 / bitrate=8938 / ratetol=2.0 / qcomp=0.60 / qpmin=0 / qpmax=51 / qpstep=4 / cplxblur=20.0 / qblur=0.5 / ip_ratio=1.40 / aq=1:1.00
Language : English
Default : Yes
Forced : No

Audio #1
ID : 2
Format : AC-3
Format/Info : Audio Coding 3
Mode extension : CM (complete main)
Format settings, Endianness : Big
Codec ID : A_AC3
Duration : 1h 51mn
Bit rate mode : Constant
Bit rate : 640 Kbps
Channel(s) : 6 channels
Channel positions : Front: L C R, Side: L R, LFE
Sampling rate : 48.0 KHz
Bit depth : 16 bits
Compression mode : Lossy
Stream size : 510 MiB (6%)
Title : Дублированный
Language : Russian
Default : Yes
Forced : No

Audio #2
ID : 3
Format : AC-3
Format/Info : Audio Coding 3
Mode extension : CM (complete main)
Format settings, Endianness : Big
Codec ID : A_AC3
Duration : 1h 51mn
Bit rate mode : Constant
Bit rate : 640 Kbps
Channel(s) : 6 channels
Channel positions : Front: L C R, Side: L R, LFE
Sampling rate : 48.0 KHz
Bit depth : 16 bits
Compression mode : Lossy
Stream size : 510 MiB (6%)
Title : Английский / Оригинал
Language : English
Default : No
Forced : No

Text
ID : 4
Format : UTF-8
Codec ID : S_TEXT/UTF8
Codec ID/Info : UTF-8 Plain Text
Title : Русские (полные)
Language : Russian
Default : No
Forced : No

Menu
00:00:00.000 : :Chapter 01
00:07:35.625 : :Chapter 02
00:15:15.791 : :Chapter 03
00:21:55.250 : :Chapter 04
00:28:55.666 : :Chapter 05
00:33:54.083 : :Chapter 06
00:40:26.750 : :Chapter 07
00:47:01.416 : :Chapter 08
00:54:11.875 : :Chapter 09
01:03:16.666 : :Chapter 10
01:10:10.375 : :Chapter 11
01:16:42.541 : :Chapter 12
01:23:08.916 : :Chapter 13
01:29:57.958 : :Chapter 14
01:32:23.916 : :Chapter 15
01:36:27.291 : :Chapter 16
01:43:13.416 : :Chapter 17
01:46:26.625 : :Chapter 18


загрузка...
Правила, инструкции, FAQ!!!
Торрент  Добавлен [01 июл 2013, 10:06] Скачать торрент
Скачать торрент
[ Размер 40.16 КБ / Просмотров 8 ]

Статус  
 
Размер  7.94 ГБ
Приватный: Нет (DHT включён)
.torrent скачан  0
Как залить торрент? | Как скачать Torrent? | Как смотреть и слушать онлайн?  


     Отправить личное сообщение
   
Страница 1 из 1
Показать сообщения за:  Поле сортировки  
Начать новую тему Ответить на тему

   Похожие торренты   Автор   Ответы   Просмотры   Последнее сообщение 
В этой теме нет новых непрочитанных сообщений. Скачать торрент Проверен Пятое измерение - Буковец А.Б. - Курс Практической Астрологии [2005, DjVu, RUS]

в форуме Астрология, Размер: 1.78 МБ, Здоровье: 100%

Anonymous

0
7|2

1
0

11 сен 2016, 23:53

Anonymous Перейти к последнему сообщению

В этой теме нет новых непрочитанных сообщений. Скачать торрент Проверен Пятое измерение - Буковец А. - Задачи реинкарнации. Часть 1. Фатум как искупление грехов прошлых жизней. (Астрологическое определе [2005, PDF, RUS]

в форуме Астрология, Размер: 20.73 МБ, Здоровье: 100%

Anonymous

0
39|0

7
1

11 сен 2016, 23:19

Anonymous Перейти к последнему сообщению

В этой теме нет новых непрочитанных сообщений. Скачать торрент Проверен Speirs S. - 7 Weeks to 100 Push-Ups: Strengthen and Sculpt Your Arms, Abs, Chest, Back and Glutes by Training to do 100 Consecutive Push-Ups [2009, PDF, ENG]

в форуме Физкультура, фитнес, бодибилдинг, Размер: 7.6 МБ, Здоровье: 0%

Anonymous

0
0|0

0
0

04 окт 2016, 23:32

Anonymous Перейти к последнему сообщению

В этой теме нет новых непрочитанных сообщений. Скачать торрент Проверен (Pop / Electronic) Falco - Push! Push! (CDS) - 1998, FLAC (image+.cue), lossless

в форуме Зарубежная музыка, Размер: 79.38 МБ, Здоровье: 0%

Anonymous

0
0|0

0
0

16 авг 2016, 21:14

Anonymous Перейти к последнему сообщению

В этой теме нет новых непрочитанных сообщений. Скачать торрент Проверен Linkin Park - New Divide (2009) BDRip 1080p (Джо Хан) [2009, Alternative rock, BDRip]

в форуме Концерты (HD-Video), Размер: 451.32 МБ, Здоровье: 100%

Anonymous

0
3|1

4
0

23 окт 2016, 11:54

Anonymous Перейти к последнему сообщению



Сейчас этот форум просматривают: нет зарегистрированных пользователей и гости: 3


Вы не можете начинать темы
Вы не можете отвечать на сообщения
Вы не можете редактировать свои сообщения
Вы не можете удалять свои сообщения
Вы не можете добавлять вложения

Перейти:  

!ВНИМАНИЕ!
 Ресурс не предоставляет электронные версии произведений, а занимается лишь коллекционированием и каталогизацией ссылок, присылаемых и публикуемых на форуме нашими читателями. Если вы являетесь правообладателем какого-либо представленного материала и не желаете чтобы ссылка на него находилась в нашем каталоге, свяжитесь с нами и мы незамедлительно удалим её. Файлы для обмена на трекере предоставлены пользователями сайта, и администрация не несёт ответственности за их содержание. Просьба не заливать файлы, защищенные авторскими правами, а также файлы нелегального содержания!