На всех торрентах на трекере установлена скидка на скачивание в размере 100 процентов(а).
 Возможность скачивания торрента НЕ зависит от ограничений при низком ратио, низком аплоаде, требуемом ратио или требуемом аплоаде.


Начать новую тему Ответить на тему
Статистика раздачи
Размер: 1.46 ГБ | Добавлен: 01 июл 2013, 09:56 | Скачали: 0
Сидеров: 0  [0 байт/сек]    Личеров: 0  [0 байт/сек]
Пред. тема | След. тема 

Автор
Сообщение

СообщениеДобавлено: 01 июл 2013, 09:56 

Год выпуска: 2011
Производство: Франция / Les Films du Kiosque, France 2 Cinéma, Wild Bunch
Жанр: Комедия
Продолжительность: 01:29:13
Перевод: Профессиональный (полное дублирование) лицензия
Субтитры: Русские, английские


Режиссер: Морис Бартелеми / Maurice Barthélémy

В фильме снимались: Жан-Поль Рув, Жюдит Годреш, Жерар Дармон, Этьен Шико, Максим Лефрансуа, Венсан Лакост, Кристоф Флюдер, Франсуа Бюрелу, Филипп Вие, Анн Бенуа

Вкратце: Очередной рутинный рейс авиалиний Лобуд Джет. Низкая стоимость билетов, никакого обслуживания, полный салон бедных туристов и коммивояжеров. В привычный ритм жизни вплетается разорение туроператора, который организовал рейс. И как водится, это было началом полного конца. Пираты, перестрелки, бешеные гонки на выживание — самая малость того, что ожидает бедных пассажиров…





Качество: BDRip-AVC [LOW_COST_BLUEBIRD]
Формат: MKV
Видео: H.264, 960x408 (2,35:1), 23.976 fps, 1507 Кbps, 0.160 bit/pixel
Аудио#1: 48 kHz, AC3 Dolby Digital, 3/2 (L,C,R,l,r) + LFE ch, 448.00 kbps | RUS
Аудио#2: 48 kHz, AC3 Dolby Digital, 3/2 (L,C,R,l,r) + LFE ch, 448.00 kbps | FRE


Автор рипа:


Общее
Уникальный идентификатор : 192349219088719247566070051441713551746 (0x90B51CB16C0F4F96BD390EE5D5CF1982)
Полное имя : Uljotnyj.Rejs.2011.D.BDRip.x264.potroks.mkv
Формат : Matroska
Версия формата : Version 4 / Version 2
Размер файла : 1,46 Гбайт
Продолжительность : 1 ч. 29 м.
Общий поток : 2325 Кбит/сек
Название фильма : -=POTROKS=-
Дата кодирования : UTC 2013-06-24 13:52:26
Программа кодирования : mkvmerge v5.9.0 ('On The Loose') built on Dec 15 2012 16:39:58
Библиотека кодирования : libebml v1.3.0 + libmatroska v1.4.0

Видео
Идентификатор : 1
Формат : AVC
Формат/Информация : Advanced Video Codec
Профиль формата : High@L4.1
Параметр CABAC формата : Да
Параметр ReFrames формата : 12 кадров
Идентификатор кодека : V_MPEG4/ISO/AVC
Продолжительность : 1 ч. 29 м.
Битрейт : 1507 Кбит/сек
Ширина : 960 пикселей
Высота : 408 пикселей
Соотношение сторон : 2,35:1
Режим частоты кадров : Постоянный
Частота кадров : 23,976 кадра/сек
Цветовое пространство : YUV
Субдискретизация насыщенности : 4:2:0
Битовая глубина : 8 бит
Тип развёртки : Прогрессивная
Бит/(Пиксели*Кадры) : 0.160
Размер потока : 930 Мбайт (62%)
Заголовок : Low Cost
Библиотека кодирования : x264 core 125 r2208 d9d2288
Настройки программы : cabac=1 / ref=12 / deblock=1:-2:-1 / analyse=0x3:0x133 / me=umh / subme=11 / psy=1 / psy_rd=1.05:0.00 / mixed_ref=1 / me_range=48 / chroma_me=1 / trellis=2 / 8x8dct=1 / cqm=0 / deadzone=21,11 / fast_pskip=0 / chroma_qp_offset=-2 / threads=9 / lookahead_threads=1 / sliced_threads=0 / nr=0 / decimate=1 / interlaced=0 / bluray_compat=0 / constrained_intra=0 / bframes=13 / b_pyramid=2 / b_adapt=2 / b_bias=0 / direct=3 / weightb=1 / open_gop=0 / weightp=2 / keyint=240 / keyint_min=23 / scenecut=40 / intra_refresh=0 / rc_lookahead=150 / rc=2pass / mbtree=1 / bitrate=1507 / ratetol=1.0 / qcomp=0.70 / qpmin=0 / qpmax=69 / qpstep=4 / cplxblur=20.0 / qblur=0.5 / vbv_maxrate=20000 / vbv_bufsize=20000 / nal_hrd=none / ip_ratio=1.35 / aq=1:0.70
Язык : French
Default : Да
Forced : Нет

Аудио #1
Идентификатор : 2
Формат : AC-3
Формат/Информация : Audio Coding 3
Расширение режима : CM (complete main)
Параметр Endianness формата : Big
Идентификатор кодека : A_AC3
Продолжительность : 1 ч. 29 м.
Вид битрейта : Постоянный
Битрейт : 448 Кбит/сек
Каналы : 6 каналов
Расположение каналов : Front: L C R, Side: L R, LFE
Частота : 48,0 КГц
Битовая глубина : 16 бит
Метод сжатия : С потерями
Размер потока : 288 Мбайт (19%)
Заголовок : MVO | DD 5.1 @ 448 kbps - R5
Язык : Russian
Default : Да
Forced : Да

Аудио #2
Идентификатор : 3
Формат : AC-3
Формат/Информация : Audio Coding 3
Расширение режима : CM (complete main)
Параметр Endianness формата : Big
Идентификатор кодека : A_AC3
Продолжительность : 1 ч. 29 м.
Вид битрейта : Постоянный
Битрейт : 384 Кбит/сек
Каналы : 6 каналов
Расположение каналов : Front: L C R, Side: L R, LFE
Частота : 48,0 КГц
Битовая глубина : 16 бит
Метод сжатия : С потерями
Размер потока : 247 Мбайт (17%)
Заголовок : Original | DD 5.1 @ 448 kbps
Язык : French
Default : Нет
Forced : Нет

Текст #1
Идентификатор : 4
Формат : UTF-8
Идентификатор кодека : S_TEXT/UTF8
Идентификатор кодека/Информация : UTF-8 Plain Text
Язык : English
Default : Нет
Forced : Нет

Текст #2
Идентификатор : 5
Формат : UTF-8
Идентификатор кодека : S_TEXT/UTF8
Идентификатор кодека/Информация : UTF-8 Plain Text
Язык : Russian
Default : Нет
Forced : Нет
x264 [info]: frame I:969 Avg QP:16.23 size: 42096
x264 [info]: frame P:28572 Avg QP:18.07 size: 16786
x264 [info]: frame B:98815 Avg QP:21.19 size: 4936
x264 [info]: consecutive B-frames: 1.9% 2.2% 6.8% 32.5% 17.2% 30.0% 4.4% 3.3% 0.5% 0.4% 0.3% 0.3% 0.0% 0.2%
x264 [info]: mb I I16..4: 11.4% 67.0% 21.7%
x264 [info]: mb P I16..4: 1.9% 9.2% 1.6% P16..4: 32.8% 36.1% 11.1% 1.8% 0.2% skip: 5.3%
x264 [info]: mb B I16..4: 0.3% 0.9% 0.2% B16..8: 36.0% 20.0% 2.8% direct: 4.1% skip:35.7% L0:41.0% L1:45.5% BI:13.5%
x264 [info]: 8x8 transform intra:69.5% inter:67.6%
x264 [info]: direct mvs spatial:98.5% temporal:1.5%
x264 [info]: coded y,uvDC,uvAC intra: 74.0% 79.3% 53.2% inter: 19.1% 17.9% 2.9%
x264 [info]: i16 v,h,dc,p: 36% 20% 4% 39%
x264 [info]: i8 v,h,dc,ddl,ddr,vr,hd,vl,hu: 10% 6% 5% 10% 15% 15% 14% 13% 12%
x264 [info]: i4 v,h,dc,ddl,ddr,vr,hd,vl,hu: 11% 10% 8% 8% 15% 14% 13% 10% 11%
x264 [info]: i8c dc,h,v,p: 34% 27% 19% 20%
x264 [info]: Weighted P-Frames: Y:2.0% UV:0.6%
x264 [info]: ref P L0: 46.5% 10.5% 16.8% 5.9% 5.1% 3.5% 3.2% 1.7% 1.7% 2.0% 1.4% 1.4% 0.2% 0.0%
x264 [info]: ref B L0: 79.8% 9.0% 4.0% 1.9% 1.5% 1.1% 0.9% 0.5% 0.5% 0.4% 0.2%
x264 [info]: ref B L1: 94.5% 5.5%
x264 [info]: kb/s:1506.47

x264 [total]: encoded 128356 frames, 7.96 fps, 1506.47 kb/s
TIME
------------------------------
Общее время кодирования: 7 hour 11 min 43 sec
Файл получился на: 962.32 mb

загрузка...
Правила, инструкции, FAQ!!!
Торрент  Добавлен [01 июл 2013, 09:56] Скачать торрент
Скачать торрент
[ Размер 15.1 КБ / Просмотров 7 ]

Статус  
 
Размер  1.46 ГБ
Приватный: Нет (DHT включён)
.torrent скачан  0
Как залить торрент? | Как скачать Torrent? | Как смотреть и слушать онлайн?  


     Отправить личное сообщение
   
Страница 1 из 1
Показать сообщения за:  Поле сортировки  
Начать новую тему Ответить на тему

   Похожие торренты   Автор   Ответы   Просмотры   Последнее сообщение 
В этой теме нет новых непрочитанных сообщений. Скачать торрент Проверен Потерянный рейс / United 93 (2006) BDRip 720p

в форуме 720p | 1080p, Размер: 5.39 ГБ, Здоровье: 100%

Anonymous

0
105|12

24
195

01 янв 2015, 20:50

Anonymous Перейти к последнему сообщению

В этой теме нет новых непрочитанных сообщений. Скачать торрент Проверен Полосатый рейс (Владимир Фетин) [1961, эксцентрическая комедия, BDRip]

в форуме Кино СССР, Размер: 1.59 ГБ, Здоровье: 100%

Anonymous

0
66|19

27
1

21 окт 2014, 20:56

Anonymous Перейти к последнему сообщению

В этой теме нет новых непрочитанных сообщений. Скачать торрент Проверен Полосатый рейс (Владимир Фетин) [1961, СССР, комедия, BDRip 720p] + Sub Rus, Eng

в форуме Наше кино (HD Video), Размер: 6.2 ГБ, Здоровье: 100%

Anonymous

0
27|9

26
0

12 апр 2015, 15:06

Anonymous Перейти к последнему сообщению

В этой теме нет новых непрочитанных сообщений. Скачать торрент Потерянный рейс / United 93 (Пол Гринграсс / Paul Greengrass) [2006 , драма, криминал, история , BDRip] DUB + DVO

в форуме Драмы, Мелодрамы, Размер: 2.18 ГБ, Здоровье: 100%

Anonymous

0
17|5

33
1

11 фев 2014, 09:17

Anonymous Перейти к последнему сообщению

В этой теме нет новых непрочитанных сообщений. Скачать торрент Потерянный рейс / United 93 (Пол Гринграсс / Paul Greengrass) [2006, США, Франция, Великобритания, драма, криминал, история, BDRip] DUB

в форуме Драмы, Мелодрамы, Размер: 1.81 ГБ, Здоровье: 100%

Anonymous

0
37|12

69
0

02 апр 2014, 08:22

Anonymous Перейти к последнему сообщению



Сейчас этот форум просматривают: нет зарегистрированных пользователей и гости: 5


Вы не можете начинать темы
Вы не можете отвечать на сообщения
Вы не можете редактировать свои сообщения
Вы не можете удалять свои сообщения
Вы не можете добавлять вложения

Перейти:  

!ВНИМАНИЕ!
 Ресурс не предоставляет электронные версии произведений, а занимается лишь коллекционированием и каталогизацией ссылок, присылаемых и публикуемых на форуме нашими читателями. Если вы являетесь правообладателем какого-либо представленного материала и не желаете чтобы ссылка на него находилась в нашем каталоге, свяжитесь с нами и мы незамедлительно удалим её. Файлы для обмена на трекере предоставлены пользователями сайта, и администрация не несёт ответственности за их содержание. Просьба не заливать файлы, защищенные авторскими правами, а также файлы нелегального содержания!