На всех торрентах на трекере установлена скидка на скачивание в размере 100 процентов(а).
 Возможность скачивания торрента НЕ зависит от ограничений при низком ратио, низком аплоаде, требуемом ратио или требуемом аплоаде.


Начать новую тему Ответить на тему
Статистика раздачи
Размер: 1.45 ГБ | Добавлен: 30 июн 2013, 20:10 | Скачали: 0
Сидеров: 0  [0 байт/сек]    Личеров: 0  [0 байт/сек]
Пред. тема | След. тема 

Автор
Сообщение

СообщениеДобавлено: 30 июн 2013, 20:10 

Страна: США
Год выпуска: 2006
Жанр: мистика, экшн, триллер
Продолжительность: 01:37:07
Перевод: Профессиональный (дублированный)
Cубтитры: нет
Оригинальная аудиодорожка: нет

Режиссер: Ренни Харлин / Renny Harlin

В ролях: Стивен Стрэйт, Себастиан Стэн, Тоби Хемигуэй, Чейс Кроуфорд, Тэйлор Китш, Мэтт Остин, Ларри Дэй, Джессика Лукас, Лора Рэмси

Описание: Четыре подростка, принадлежащих к древней касте людей, обладающих сверхъестественными способностями, должны остановить зло, которое они сами когда-то выпустили на волю. Но, чтобы успешно справиться со своей миссией, им необходимо научиться доверять друг другу.




Качество видео: BDRip-AVC
Формат видео: MKV
Видео кодек: H264
Аудио кодек: AC3
Видео: 896x384 (2:35:1), 23.976 fps, H264, 1 691 Kbps, 0.205 bit/pixel
Аудио: 48 kHz, AC3 Dolby Digital, 3/2 (L,C,R,l,r) + LFE ch, ~448 kbps

Раздача от:


D:The.Covenant.BDRip-AVC.[YTN]_by_dexter_lex.mkv
General
Unique ID : 230584934187702611381523201988924605475 (0xAD790AFE9E436B41AB14AE04C5550423)
Complete name : D:The.Covenant.BDRip-AVC.[YTN]_by_dexter_lex.mkv
Format : Matroska
Format version : Version 1
File size : 1.45 GiB
Duration : 1h 37mn
Overall bit rate : 2 137 Kbps
Encoded date : UTC 2013-06-30 15:26:24
Writing application : mkvmerge v2.3.0 ('Freak U') built on Sep 8 2008 18:32:16
Writing library : libebml v0.7.7 + libmatroska v0.8.1
Video #1
ID : 1
Format : AVC
Format/Info : Advanced Video Codec
Format profile : High@L4.1
Format settings, CABAC : Yes
Format settings, ReFrames : 11 frames
Codec ID : V_MPEG4/ISO/AVC
Duration : 1h 37mn
Bit rate : 1 691 Kbps
Width : 896 pixels
Height : 384 pixels
Display aspect ratio : 2.35:1
Frame rate : 23.976 fps
Color space : YUV
Chroma subsampling : 4:2:0
Bit depth : 8 bits
Scan type : Progressive
Bits/(Pixel*Frame) : 0.205
Stream size : 1.12 GiB (77%)
Writing library : x264 core 130 r2273 b3065e6
Encoding settings : cabac=1 / ref=11 / deblock=1:-3:-2 / analyse=0x3:0x113 / me=umh / subme=9 / psy=1 / psy_rd=1.00:0.10 / mixed_ref=1 / me_range=32 / chroma_me=1 / trellis=1 / 8x8dct=1 / cqm=0 / deadzone=21,11 / fast_pskip=0 / chroma_qp_offset=-3 / threads=6 / lookahead_threads=1 / sliced_threads=0 / nr=0 / decimate=1 / interlaced=0 / bluray_compat=0 / constrained_intra=0 / bframes=10 / b_pyramid=2 / b_adapt=1 / b_bias=0 / direct=3 / weightb=1 / open_gop=0 / weightp=2 / keyint=240 / keyint_min=23 / scenecut=40 / intra_refresh=0 / rc_lookahead=60 / rc=2pass / mbtree=1 / bitrate=1691 / ratetol=1.0 / qcomp=0.60 / qpmin=0 / qpmax=69 / qpstep=4 / cplxblur=20.0 / qblur=0.5 / ip_ratio=1.40 / aq=1:1.00
Default : Yes
Forced : No
Audio #2
ID : 2
Format : AC-3
Format/Info : Audio Coding 3
Mode extension : CM (complete main)
Codec ID : A_AC3
Duration : 1h 37mn
Bit rate mode : Constant
Bit rate : 448 Kbps
Channel(s) : 6 channels
Channel positions : Front: L C R, Side: L R, LFE
Sampling rate : 48.0 KHz
Bit depth : 16 bits
Compression mode : Lossy
Stream size : 311 MiB (21%)
Language : Russian
Default : Yes
Forced : No
загрузка...
Правила, инструкции, FAQ!!!
Торрент  Добавлен [30 июн 2013, 20:10] Скачать торрент
Скачать торрент
[ Размер 15.15 КБ / Просмотров 10 ]

Статус  
 
Размер  1.45 ГБ
Приватный: Нет (DHT включён)
.torrent скачан  0
Как залить торрент? | Как скачать Torrent? | Как смотреть и слушать онлайн?  


     Отправить личное сообщение
   
Страница 1 из 1
Показать сообщения за:  Поле сортировки  
Начать новую тему Ответить на тему

   Похожие торренты   Автор   Ответы   Просмотры   Последнее сообщение 
В этой теме нет новых непрочитанных сообщений. Скачать торрент Сделка с дьяволом / The Covenant (Ренни Харлин / Renny Harlin) [2006, США, мистика, экшн, триллер, HDRip]

в форуме Триллеры, Размер: 2.05 ГБ, Здоровье: 0%

Anonymous

0
0|0

39
0

19 фев 2014, 11:41

Anonymous Перейти к последнему сообщению

В этой теме нет новых непрочитанных сообщений. Скачать торрент Изгнанные дьяволом / The Devil's Rejects (2005) BDRip 720p | Лицензия

в форуме 720p | 1080p, Размер: 11.73 ГБ, Здоровье: 0%

Anonymous

0
0|0

24
0

20 янв 2014, 11:47

Anonymous Перейти к последнему сообщению

В этой теме нет новых непрочитанных сообщений. Скачать торрент Проверен Иван Сербин | Сделка [1997] [FB2, EPUB, PDF, RTF]

в форуме Детективы и Боевики, Размер: 12.65 МБ, Здоровье: 100%

Anonymous

0
2|2

26
1

18 сен 2014, 17:44

Anonymous Перейти к последнему сообщению

В этой теме нет новых непрочитанных сообщений. Скачать торрент Проверен Роберт Ладлэм - Сделка Райнемана [Миронов П, 2009, 128 kbps]

в форуме Детектив и Боевики, Размер: 585.95 МБ, Здоровье: 0%

Anonymous

0
0|0

8
0

04 май 2016, 22:33

Anonymous Перейти к последнему сообщению

В этой теме нет новых непрочитанных сообщений. Закрыто правообладателем Елена Михалкова | Пари с морским дьяволом (2014) [FB2] Данный торрент является блокированным, причина: Закрыто правообладателем

в форуме Детективы и Боевики, Размер: 1.38 МБ, Здоровье: 100%

Anonymous

0
7|2

83
2

20 сен 2014, 22:18

Anonymous Перейти к последнему сообщению



Сейчас этот форум просматривают: нет зарегистрированных пользователей и гости: 2


Вы не можете начинать темы
Вы не можете отвечать на сообщения
Вы не можете редактировать свои сообщения
Вы не можете удалять свои сообщения
Вы не можете добавлять вложения

Перейти:  

!ВНИМАНИЕ!
 Ресурс не предоставляет электронные версии произведений, а занимается лишь коллекционированием и каталогизацией ссылок, присылаемых и публикуемых на форуме нашими читателями. Если вы являетесь правообладателем какого-либо представленного материала и не желаете чтобы ссылка на него находилась в нашем каталоге, свяжитесь с нами и мы незамедлительно удалим её. Файлы для обмена на трекере предоставлены пользователями сайта, и администрация не несёт ответственности за их содержание. Просьба не заливать файлы, защищенные авторскими правами, а также файлы нелегального содержания!