На всех торрентах на трекере установлена скидка на скачивание в размере 100 процентов(а).
 Возможность скачивания торрента НЕ зависит от ограничений при низком ратио, низком аплоаде, требуемом ратио или требуемом аплоаде.


Начать новую тему Ответить на тему
Статистика раздачи
Размер: 3.65 ГБ | Добавлен: 30 июн 2013, 18:49 | Скачали: 0
Сидеров: 0  [0 байт/сек]    Личеров: 0  [0 байт/сек]
Пред. тема | След. тема 

Автор
Сообщение

СообщениеДобавлено: 30 июн 2013, 18:49 

Название: Сага о викингах: тёмные времена
Оригинальное название: A Viking Saga: The Darkest Day
Год выхода: 2013
Жанр: боевик, триллер, приключения
Режиссер: Крис Кроу

В фильме снимались: Марк Льюис Джонс, Майкл Джибсон, Марк Пикеринг, Гари Маверс, Элен Риз, Джошуа Ричардс, Кристофер Годвин, Сара Паркс, Пол Джибсон, Хув Гармон

Вкратце: Основано на реальных событиях. Брошенный в мир, полный жестокости, крови и убийств, Херевард, начинающий монах, должен доставить в безопасный монастырь Ионы Святое Еванигелие Линдисфарнского - книгу необычной красоты и силы. В то же время её хочет захватить адский батальон смерти викингов. По дороге в монастырь он встречает жестокого и искусного фехтовальщика, который откликается на его мольбы и посвящает свою жизнь защите Хереварда на то время, пока тот доставляет книгу. Посреди пути они сталкиваются с викингами, готовыми убивать ради того, чтобы получить то, что они хотят.



Выпущено: Великобритания / Lindisfarne Films
Продолжительность: 01:26:50
Озвучивание: Любительское (одноголосое) [den904], перевод [Janetta]


Качество: BDRip 720p
Формат: MKV
Видео: 3600 Kb/s, 1280x546
Аудио: Russian: AC3, 448 kb/s (6 ch) / English: DTS, 1510 Kbps (6 ch)



General
Unique ID : 188671946769191300867178876241772890257 (0x8DF0E52B7D8FE41AA5E79C25D3CD4891)
Complete name : A.Viking.Saga.The.Darkest.Day.2013.L1.BDRip.720p.mkv
Format : Matroska
Format version : Version 2
File size : 3.65 GiB
Duration : 1h 26mn
Overall bit rate mode : Variable
Overall bit rate : 6 019 Kbps
Encoded date : UTC 2013-06-30 13:08:07
Writing application : mkvmerge v2.9.8 ('C'est le bon') built on Nov 20 2009 13:01:15
Writing library : libebml v0.7.9 + libmatroska v0.8.1

Video
ID : 1
Format : AVC
Format/Info : Advanced Video Codec
Format profile : High@L4.1
Format settings, CABAC : Yes
Format settings, ReFrames : 11 frames
Codec ID : V_MPEG4/ISO/AVC
Duration : 1h 26mn
Bit rate : 3 891 Kbps
Nominal bit rate : 3 600 Kbps
Width : 1 280 pixels
Height : 546 pixels
Display aspect ratio : 2.35:1
Frame rate : 25.000 fps
Color space : YUV
Chroma subsampling : 4:2:0
Bit depth : 8 bits
Scan type : Progressive
Bits/(Pixel*Frame) : 0.223
Stream size : 2.36 GiB (65%)
Writing library : x264 core 133 r2334 a3ac64b
Encoding settings : cabac=1 / ref=11 / deblock=1:-2:-2 / analyse=0x3:0x113 / me=umh / subme=11 / psy=1 / psy_rd=0.85:0.00 / mixed_ref=1 / me_range=32 / chroma_me=1 / trellis=2 / 8x8dct=1 / cqm=0 / deadzone=21,11 / fast_pskip=0 / chroma_qp_offset=-2 / threads=18 / lookahead_threads=3 / sliced_threads=0 / nr=0 / decimate=0 / interlaced=0 / bluray_compat=0 / constrained_intra=0 / bframes=8 / b_pyramid=2 / b_adapt=2 / b_bias=0 / direct=3 / weightb=1 / open_gop=0 / weightp=2 / keyint=250 / keyint_min=25 / scenecut=40 / intra_refresh=0 / rc=2pass / mbtree=0 / bitrate=3600 / ratetol=1.0 / qcomp=0.70 / qpmin=0 / qpmax=69 / qpstep=4 / cplxblur=20.0 / qblur=0.5 / ip_ratio=1.20 / pb_ratio=1.20 / aq=1:0.90
Language : English
Default : No
Forced : No

Audio #1
ID : 2
Format : AC-3
Format/Info : Audio Coding 3
Mode extension : CM (complete main)
Format settings, Endianness : Big
Codec ID : A_AC3
Duration : 1h 26mn
Bit rate mode : Constant
Bit rate : 448 Kbps
Channel(s) : 6 channels
Channel positions : Front: L C R, Side: L R, LFE
Sampling rate : 48.0 KHz
Bit depth : 16 bits
Compression mode : Lossy
Stream size : 278 MiB (7%)
Language : Russian
Default : Yes
Forced : Yes

Audio #2
ID : 3
Format : DTS
Format/Info : Digital Theater Systems
Format profile : MA / Core
Codec ID : A_DTS
Duration : 1h 26mn
Bit rate mode : Variable
Bit rate : 1 561 Kbps / 1 510 Kbps
Channel(s) : 6 channels
Channel positions : Front: L C R, Side: L R, LFE
Sampling rate : 48.0 KHz
Bit depth : 16 bits
Compression mode : Lossless / Lossy
Language : English
Default : No
Forced : No
загрузка...
Правила, инструкции, FAQ!!!
Торрент  Добавлен [30 июн 2013, 18:49] Скачать торрент
Скачать торрент
[ Размер 18.75 КБ / Просмотров 11 ]

Статус  
 
Размер  3.65 ГБ
Приватный: Нет (DHT включён)
.torrent скачан  0
Как залить торрент? | Как скачать Torrent? | Как смотреть и слушать онлайн?  


     Отправить личное сообщение
   
Страница 1 из 1
Показать сообщения за:  Поле сортировки  
Начать новую тему Ответить на тему

   Похожие торренты   Автор   Ответы   Просмотры   Последнее сообщение 
В этой теме нет новых непрочитанных сообщений. Скачать торрент Проверен Викинги / Northmen - A Viking Saga (2014) WEB-DL 720p | iTunes

в форуме 720p | 1080p, Размер: 2.94 ГБ, Здоровье: 100%

Гость

0
11208|1028

34
23751

01 янв 2015, 11:25

Гость Перейти к последнему сообщению

В этой теме нет новых непрочитанных сообщений. Скачать торрент Проверен Сага: Пятница 13-е / Friday the 13th Saga (1980-1989) BDRip 1080p | P, P2, A

в форуме Антологии, Размер: 81.89 ГБ, Здоровье: 33%

Гость

0
1|3

430
10

13 дек 2014, 09:31

Гость Перейти к последнему сообщению

В этой теме нет новых непрочитанных сообщений. Скачать торрент Проверен Сумерки. Сага. Антология / Twilight. Saga. Anthology (2008-2012) BDRip | КПК

в форуме Видео для смартфонов и КПК, Размер: 2.72 ГБ, Здоровье: 100%

Гость

0
14|10

196
73

15 ноя 2015, 23:53

Гость Перейти к последнему сообщению

В этой теме нет новых непрочитанных сообщений. Скачать торрент Звездные войны: Сага / Star Wars: The Complete Saga (1977-2005) BDRip 1080p

в форуме Антологии, Размер: 69.32 ГБ, Здоровье: 100%

Anonymous

0
74|46

161
69

28 мар 2014, 17:16

Anonymous Перейти к последнему сообщению

В этой теме нет новых непрочитанных сообщений. Скачать торрент Сумерки. Сага. Затмение / The Twilight Saga: Eclipse (Дэвид Слэйд / David Slade) [2010 г., США, Фэнтези, мелодрама, BDRip-AVC] Dub

в форуме 720p | 1080p, Размер: 2.19 ГБ, Здоровье: 100%

Anonymous

0
34|11

57
0

13 фев 2014, 06:32

Anonymous Перейти к последнему сообщению



Сейчас этот форум просматривают: нет зарегистрированных пользователей и гости: 5


Вы не можете начинать темы
Вы не можете отвечать на сообщения
Вы не можете редактировать свои сообщения
Вы не можете удалять свои сообщения
Вы не можете добавлять вложения

Перейти:  

!ВНИМАНИЕ!
 Ресурс не предоставляет электронные версии произведений, а занимается лишь коллекционированием и каталогизацией ссылок, присылаемых и публикуемых на форуме нашими читателями. Если вы являетесь правообладателем какого-либо представленного материала и не желаете чтобы ссылка на него находилась в нашем каталоге, свяжитесь с нами и мы незамедлительно удалим её. Файлы для обмена на трекере предоставлены пользователями сайта, и администрация не несёт ответственности за их содержание. Просьба не заливать файлы, защищенные авторскими правами, а также файлы нелегального содержания!