На всех торрентах на трекере установлена скидка на скачивание в размере 100 процентов(а).
 Возможность скачивания торрента НЕ зависит от ограничений при низком ратио, низком аплоаде, требуемом ратио или требуемом аплоаде.


Начать новую тему Ответить на тему
Статистика раздачи
Размер: 5.86 ГБ | Добавлен: 29 июн 2013, 11:28 | Скачали: 0
Сидеров: 0  [0 байт/сек]    Личеров: 0  [0 байт/сек]
Пред. тема | След. тема 

Автор
Сообщение

СообщениеДобавлено: 29 июн 2013, 11:28 

Название: Гостья
Оригинальное название: The Host
Год выхода: 2013
Жанр: фантастика, боевик, триллер, мелодрама, приключения
Режиссер: Эндрю Никкол

В фильме снимались: Сирша Ронан, Макс Айронс, Джейк Эйбел, Дайан Крюгер, Уильям Хёрт, Чандлер Кентербери, Фрэнсис Фишер, Скотт Лоуренс, Бойд Холбрук, Мустафа Харрис

Вкратце:
Земля — в опасности! Наше место скоро займут Души — лишенные плотской оболочки пришельцы, вытесняющие из человеческих тел разум и замещающие его разумом собственным. Большая часть человечества уже погибла. Немногие выжившие скрываются в жалкой попытке отсрочить неизбежное… Теперь Душа пытается захватить тело юной Мелани. Однако происходит неожиданное: Мелани и ее Душа вынуждены сосуществовать в одном теле. Гостье надлежало выследить и выдать землян-повстанцев, с которыми связана Мелани, но она помогает своей носительнице.

Страна: США
Продолжительность: 02:05:38
Перевод: Дублированный

Формат: mkv
Кодек: x264
Качество: BDRip 720p
Видео: MPEG-4 AVC, 4716 Кбит/с, 1280x536
Звук: Русский (AC3, 6 ch, 448 Кбит/с), английский (DTS, 6 ch, 1510 Кбит/с)
Общее
Уникальный идентификатор : 195129957385784413642072483989808191090 (0x92CCA9AD1AFB5687A5F3EBD129539672)
Полное имя : Gostya.2013.BDRip.(720p).mkv
Формат : Matroska
Версия формата : Version 4 / Version 2
Размер файла : 5,86 Гбайт
Продолжительность : 2 ч. 5 м.
Общий поток : 6674 Кбит/сек
Название фильма : Created by filin1984 for Кинозал.ТВ
Дата кодирования : UTC 2013-06-28 18:39:34
Программа кодирования : mkvmerge v6.2.0 ('Promised Land') built on Apr 28 2013 12:22:01
Библиотека кодирования : libebml v1.3.0 + libmatroska v1.4.0

Видео
Идентификатор : 1
Формат : AVC
Формат/Информация : Advanced Video Codec
Профиль формата : High@L4.1
Параметр CABAC формата : Да
Параметр ReFrames формата : 5 кадров
Идентификатор кодека : V_MPEG4/ISO/AVC
Продолжительность : 2 ч. 5 м.
Битрейт : 4716 Кбит/сек
Ширина : 1280 пикселей
Высота : 536 пикселей
Соотношение сторон : 2,40:1
Режим частоты кадров : Постоянный
Частота кадров : 23,976 кадра/сек
Цветовое пространство : YUV
Субдискретизация насыщенности : 4:2:0
Битовая глубина : 8 бит
Тип развёртки : Прогрессивная
Бит/(Пиксели*Кадры) : 0.287
Размер потока : 4,02 Гбайт (69%)
Библиотека кодирования : x264 core 133 r2334 a3ac64b
Настройки программы : cabac=1 / ref=5 / deblock=1:0:0 / analyse=0x3:0x2 / me=umh / subme=7 / psy=1 / psy_rd=1.00:0.00 / mixed_ref=1 / me_range=16 / chroma_me=1 / trellis=1 / 8x8dct=1 / cqm=0 / deadzone=21,11 / fast_pskip=1 / chroma_qp_offset=-2 / threads=12 / lookahead_threads=2 / sliced_threads=0 / nr=0 / decimate=1 / interlaced=0 / bluray_compat=0 / constrained_intra=0 / bframes=3 / b_pyramid=2 / b_adapt=1 / b_bias=0 / direct=1 / weightb=0 / open_gop=0 / weightp=2 / keyint=240 / keyint_min=23 / scenecut=40 / intra_refresh=0 / rc=2pass / mbtree=0 / bitrate=4716 / ratetol=1.0 / qcomp=0.60 / qpmin=10 / qpmax=51 / qpstep=4 / cplxblur=20.0 / qblur=0.5 / ip_ratio=1.40 / pb_ratio=1.30 / aq=1:1.00
Язык : English
Default : Да
Forced : Нет

Аудио #1
Идентификатор : 2
Формат : AC-3
Формат/Информация : Audio Coding 3
Расширение режима : CM (complete main)
Параметр Endianness формата : Big
Идентификатор кодека : A_AC3
Продолжительность : 2 ч. 5 м.
Вид битрейта : Постоянный
Битрейт : 448 Кбит/сек
Каналы : 6 каналов
Расположение каналов : Front: L C R, Side: L R, LFE
Частота : 48,0 КГц
Битовая глубина : 16 бит
Метод сжатия : С потерями
Размер потока : 403 Мбайт (7%)
Язык : Russian
Default : Да
Forced : Нет

Аудио #2
Идентификатор : 3
Формат : DTS
Формат/Информация : Digital Theater Systems
Режим : 16
Параметр Endianness формата : Big
Идентификатор кодека : A_DTS
Продолжительность : 2 ч. 5 м.
Вид битрейта : Постоянный
Битрейт : 1509 Кбит/сек
Каналы : 6 каналов
Расположение каналов : Front: L C R, Side: L R, LFE
Частота : 48,0 КГц
Битовая глубина : 24 бит
Метод сжатия : С потерями
Размер потока : 1,32 Гбайт (23%)
Язык : English
Default : Нет
Forced : Нет

Текст
Идентификатор : 4
Формат : UTF-8
Идентификатор кодека : S_TEXT/UTF8
Идентификатор кодека/Информация : UTF-8 Plain Text
Заголовок : English
Язык : English
Default : Нет
Forced : Нет

Меню
00:00:00.000 : en:00:00:00.000
00:06:03.530 : en:00:06:03.530
00:12:12.398 : en:00:12:12.398
00:20:29.770 : en:00:20:29.770
00:25:19.727 : en:00:25:19.727
00:31:01.234 : en:00:31:01.234
00:35:37.135 : en:00:35:37.135
00:40:02.317 : en:00:40:02.317
00:45:39.153 : en:00:45:39.153
00:51:08.482 : en:00:51:08.482
00:55:26.198 : en:00:55:26.198
01:03:49.951 : en:01:03:49.951
01:13:51.761 : en:01:13:51.761
01:18:54.355 : en:01:18:54.355
01:27:54.144 : en:01:27:54.144
01:32:36.468 : en:01:32:36.468
01:37:53.284 : en:01:37:53.284
01:46:51.697 : en:01:46:51.697
01:52:23.528 : en:01:52:23.528
01:57:30.669 : en:01:57:30.669


загрузка...
Правила, инструкции, FAQ!!!
Торрент  Добавлен [29 июн 2013, 11:28] Скачать торрент
Скачать торрент
[ Размер 29.94 КБ / Просмотров 8 ]

Статус  
 
Размер  5.86 ГБ
Приватный: Нет (DHT включён)
.torrent скачан  0
Как залить торрент? | Как скачать Torrent? | Как смотреть и слушать онлайн?  


     Отправить личное сообщение
   
Страница 1 из 1
Показать сообщения за:  Поле сортировки  
Начать новую тему Ответить на тему

   Похожие торренты   Автор   Ответы   Просмотры   Последнее сообщение 
В этой теме нет новых непрочитанных сообщений. Скачать торрент Проверен Джо / Joe (2013) BDRip 720p | P | лицензия

в форуме 720p | 1080p, Размер: 5.83 ГБ, Здоровье: 100%

Anonymous

0
36|0

46
296

05 июн 2014, 12:38

Anonymous Перейти к последнему сообщению

В этой теме нет новых непрочитанных сообщений. Скачать торрент РЭД 2 / Red 2 (2013) BDRip 720p | Лицензия

в форуме 720p | 1080p, Размер: 2.96 ГБ, Здоровье: 100%

Anonymous

0
20|1

80
0

20 дек 2013, 08:52

Anonymous Перейти к последнему сообщению

В этой теме нет новых непрочитанных сообщений. Скачать торрент Ку! Кин-дза-дза (2013) BDRip 720p | Лицензия

в форуме Отечественные мультфильмы (HD Video), Размер: 1.55 ГБ, Здоровье: 100%

Anonymous

0
54|3

185
405

21 апр 2014, 16:23

Anonymous Перейти к последнему сообщению

В этой теме нет новых непрочитанных сообщений. Скачать торрент Проверен Джо / Joe (2013) BDRip 720p | P | Лицензия

в форуме 720p | 1080p, Размер: 2.23 ГБ, Здоровье: 100%

Anonymous

0
122|2

42
1533

30 июл 2014, 21:50

Anonymous Перейти к последнему сообщению

В этой теме нет новых непрочитанных сообщений. Скачать торрент Всё включено 2 (2013) BDRip 720p | Лицензия

в форуме 720p | 1080p, Размер: 3.91 ГБ, Здоровье: 0%

Anonymous

0
0|0

32
0

16 дек 2013, 09:59

Anonymous Перейти к последнему сообщению



Сейчас этот форум просматривают: нет зарегистрированных пользователей и гости: 1


Вы не можете начинать темы
Вы не можете отвечать на сообщения
Вы не можете редактировать свои сообщения
Вы не можете удалять свои сообщения
Вы не можете добавлять вложения

Перейти:  

!ВНИМАНИЕ!
 Ресурс не предоставляет электронные версии произведений, а занимается лишь коллекционированием и каталогизацией ссылок, присылаемых и публикуемых на форуме нашими читателями. Если вы являетесь правообладателем какого-либо представленного материала и не желаете чтобы ссылка на него находилась в нашем каталоге, свяжитесь с нами и мы незамедлительно удалим её. Файлы для обмена на трекере предоставлены пользователями сайта, и администрация не несёт ответственности за их содержание. Просьба не заливать файлы, защищенные авторскими правами, а также файлы нелегального содержания!