На всех торрентах на трекере установлена скидка на скачивание в размере 100 процентов(а).
 Возможность скачивания торрента НЕ зависит от ограничений при низком ратио, низком аплоаде, требуемом ратио или требуемом аплоаде.


Начать новую тему Ответить на тему
Статистика раздачи
Размер: 2.44 ГБ | Добавлен: 10 июн 2013, 15:35 | Скачали: 2
Сидеров: 4  [0 байт/сек]    Личеров: 0  [0 байт/сек]
Пред. тема | След. тема 

Автор
Сообщение

СообщениеДобавлено: 10 июн 2013, 15:35 

Где скрывается правда / Where the Truth Lies


Название: Где скрывается правда
Оригинальное название: Where the Truth Lies
Год выхода: 2005
Жанр: Триллер, драма, детектив



Режиссер: Атом Эгоян

В фильме снимались: Кевин Бейкон, Колин Фёрт, Элисон Ломан, Дэвид Хеймен, Рейчел Блэнчард, Мори Чайкин, Соня Беннет, Кристин Эдамс, Дебора Гровер, Бо Старр, Арсинэ Ханджян, Габриель Роз, Дон МакКеллар, Дэвид Хемблен, Джон Морайтис, Майкл Дж. Рейнольдс, Эрика Розенбаум, Ребекка Дэвис, Саймон Синн, Кэтрин Уинслоу, Стюарт Хьюз, Шэннон Лосон, Сара Уотеридж, Кейт Харрелл, Ви Вимолмал, Шон Каллен, Розальба Мартинни, Брайан Фрэнк, Алиска Малиш



Вкратце:
Молодая журналистка, заинтересовавшаяся давним инцидентом, который разрушил знаменитейший комедийный шоу-дуэт Америки, оказывается вовлеченной в загадочную историю, полную тайн, страсти, вожделения и предательств…







Страна: Канада, Великобритания
Студия: Serendipity Point Films, The Movie Network (TMN), Téléfilm Canada
Продолжительность: 01:47:16
Перевод: Дублированный



Качество: HDTVRip 720p
Видео: MPEG-4 AVC, 2366 Кбит/с, 1280x544, 23.976 кадр/с
Звук: Русский (AC3, 6 ch, 384 Кбит/с), английский (AC3, 6 ch, 448 Кбит/с)
Субтитры: Русские, английские


Общее
Уникальный идентификатор : 224655965820134290842290530155399200850 (0xA9032A48F676BB25BD59E8C07B43C052)
Полное имя : E:VideoWhere.The.Truth.Lies.2005.HDTVRip.720p.mkv
Формат : Matroska
Версия формата : Version 2
Размер файла : 2,44 Гбайт
Продолжительность : 1 ч. 47 м.
Режим общего битрейта : Переменный
Общий поток : 3263 Кбит/сек
Дата кодирования : UTC 2013-06-10 10:23:10
Программа кодирования : mkvmerge v6.2.0 ('Promised Land') built on Apr 28 2013 12:22:01
Библиотека кодирования : libebml v1.3.0 + libmatroska v1.4.0

Видео
Идентификатор : 1
Формат : AVC
Формат/Информация : Advanced Video Codec
Профиль формата : High@L4.1
Параметр CABAC формата : Да
Параметр ReFrames формата : 8 кадров
Идентификатор кодека : V_MPEG4/ISO/AVC
Продолжительность : 1 ч. 47 м.
Вид битрейта : Переменный
Битрейт : 2366 Кбит/сек
Максимальный битрейт : 40,0 Мбит/сек
Ширина : 1280 пикселей
Высота : 544 пикселя
Соотношение сторон : 2,35:1
Режим частоты кадров : Постоянный
Частота кадров : 23,976 кадра/сек
Цветовое пространство : YUV
Субдискретизация насыщенности : 4:2:0
Битовая глубина : 8 бит
Тип развёртки : Прогрессивная
Бит/(Пиксели*Кадры) : 0.142
Размер потока : 1,77 Гбайт (73%)
Библиотека кодирования : x264 core 55 svn-663M
Настройки программы : cabac=1 / ref=5 / deblock=1:-3:-3 / analyse=0x3:0x113 / me=umh / subme=7 / brdo=1 / mixed_ref=1 / me_range=16 / chroma_me=1 / trellis=1 / 8x8dct=1 / cqm=2 / deadzone=21,11 / chroma_qp_offset=0 / threads=6 / nr=0 / decimate=1 / mbaff=0 / bframes=3 / b_pyramid=1 / b_adapt=1 / b_bias=0 / direct=3 / wpredb=1 / bime=1 / keyint=250 / keyint_min=25 / scenecut=40(pre) / rc=crf / crf=19.0 / rceq='blurCplx^(1-qComp)' / qcomp=0.60 / qpmin=10 / qpmax=51 / qpstep=4 / ip_ratio=1.40 / pb_ratio=1.30 / aq=1:0.3:15.
Язык : English
Default : Да
Forced : Нет

Аудио #1
Идентификатор : 2
Формат : AC-3
Формат/Информация : Audio Coding 3
Расширение режима : CM (complete main)
Параметр Endianness формата : Big
Идентификатор кодека : A_AC3
Продолжительность : 1 ч. 47 м.
Вид битрейта : Постоянный
Битрейт : 384 Кбит/сек
Каналы : 6 каналов
Расположение каналов : Front: L C R, Side: L R, LFE
Частота : 48,0 КГц
Битовая глубина : 16 бит
Метод сжатия : С потерями
Размер потока : 295 Мбайт (12%)
Язык : Russian
Default : Да
Forced : Нет

Аудио #2
Идентификатор : 3
Формат : AC-3
Формат/Информация : Audio Coding 3
Расширение режима : CM (complete main)
Параметр Endianness формата : Big
Идентификатор кодека : A_AC3
Продолжительность : 1 ч. 47 м.
Вид битрейта : Постоянный
Битрейт : 448 Кбит/сек
Каналы : 6 каналов
Расположение каналов : Front: L C R, Side: L R, LFE
Частота : 48,0 КГц
Битовая глубина : 16 бит
Метод сжатия : С потерями
Размер потока : 344 Мбайт (14%)
Язык : English
Default : Нет
Forced : Нет

Текст #1
Идентификатор : 4
Формат : UTF-8
Идентификатор кодека : S_TEXT/UTF8
Идентификатор кодека/Информация : UTF-8 Plain Text
Язык : Russian
Default : Нет
Forced : Нет

Текст #2
Идентификатор : 5
Формат : UTF-8
Идентификатор кодека : S_TEXT/UTF8
Идентификатор кодека/Информация : UTF-8 Plain Text
Язык : English
Default : Нет
Forced : Нет
загрузка...
Правила, инструкции, FAQ!!!
Торрент  Добавлен [10 июн 2013, 15:35] Скачать торрент
Скачать торрент
[ Размер 12.75 КБ / Просмотров 15 ]

Статус  
 
Размер  2.44 ГБ
Приватный: Нет (DHT включён)
.torrent скачан  2
Как залить торрент? | Как скачать Torrent? | Как смотреть и слушать онлайн?  


     Отправить личное сообщение
   
Страница 1 из 1
Показать сообщения за:  Поле сортировки  
Начать новую тему Ответить на тему

   Похожие торренты   Автор   Ответы   Просмотры   Последнее сообщение 
В этой теме нет новых непрочитанных сообщений. Скачать торрент Проверен Linkin Park - Lies Greed Misery (Jimmy Kimmel Live 28.06.12) [2012, Alternative Rock, Synth Rock, Electronic, HDTVRip 720p]

в форуме Концерты (HD-Video), Размер: 172.02 МБ, Здоровье: 0%

Anonymous

0
0|0

5
0

23 окт 2016, 10:40

Anonymous Перейти к последнему сообщению

В этой теме нет новых непрочитанных сообщений. Скачать торрент Проверен [SACD-R][OF] Doug MacLeod – Whose Truth, Whose Lies ? - 2000/2007 (Folk, Blues)

в форуме Hi-Res stereo (Джаз и Блюз), Размер: 2.52 ГБ, Здоровье: 100%

Anonymous

0
5|2

2
0

27 авг 2016, 14:32

Anonymous Перейти к последнему сообщению

В этой теме нет новых непрочитанных сообщений. Скачать торрент Проверен Garbage - Live in Sound Stage 2005 HD 720p [2005, Alternative - Rock, HDTVRip]

в форуме Концерты (HD-Video), Размер: 1.91 ГБ, Здоровье: 0%

Anonymous

0
0|0

1
0

23 окт 2016, 11:17

Anonymous Перейти к последнему сообщению

В этой теме нет новых непрочитанных сообщений. Скачать торрент Проверен МакSим - Полная дискография и видеография (2006-2015) FLAC, MP3, HDTVRip, HDTVRip 720p, HDTVRip 1080p

в форуме Дискографии (Отечественные), Размер: 24.2 ГБ, Здоровье: 100%

Гость

0
272|150

299
23

20 дек 2015, 12:22

Гость Перейти к последнему сообщению

В этой теме нет новых непрочитанных сообщений. Скачать торрент Проверен Душа тишины / The Quiet (2005) HDTVRip 720p | P2

в форуме 720p | 1080p, Размер: 3.31 ГБ, Здоровье: 70%

Гость

0
63|90

137
192

05 июн 2015, 00:21

Гость Перейти к последнему сообщению



Сейчас этот форум просматривают: нет зарегистрированных пользователей и гости: 2


Вы не можете начинать темы
Вы не можете отвечать на сообщения
Вы не можете редактировать свои сообщения
Вы не можете удалять свои сообщения
Вы не можете добавлять вложения

Перейти:  

!ВНИМАНИЕ!
 Ресурс не предоставляет электронные версии произведений, а занимается лишь коллекционированием и каталогизацией ссылок, присылаемых и публикуемых на форуме нашими читателями. Если вы являетесь правообладателем какого-либо представленного материала и не желаете чтобы ссылка на него находилась в нашем каталоге, свяжитесь с нами и мы незамедлительно удалим её. Файлы для обмена на трекере предоставлены пользователями сайта, и администрация не несёт ответственности за их содержание. Просьба не заливать файлы, защищенные авторскими правами, а также файлы нелегального содержания!