На всех торрентах на трекере установлена скидка на скачивание в размере 100 процентов(а).
 Возможность скачивания торрента НЕ зависит от ограничений при низком ратио, низком аплоаде, требуемом ратио или требуемом аплоаде.


Начать новую тему Ответить на тему
Статистика раздачи
Размер: 7.89 ГБ | Добавлен: 10 июн 2013, 09:22 | Скачали: 6
Сидеров: 4  [0 байт/сек]    Личеров: 1  [0 байт/сек]
Пред. тема | След. тема 

Автор
Сообщение

СообщениеДобавлено: 10 июн 2013, 09:22 

Страна: США, Франция
Жанр: боевик, триллер, комедия, драма, криминал
Год выпуска: 2001
Режиссёр: Крис Наон

В фильме снимались: Джет Ли, Бриджит Фонда, Чеки Карио, Макс Райан, Рик Янг, Берт Квук, Лоуренс Эшли, Сирил Раффаэлли, Дидье Азулай

Вкратце: Офицер китайской разведки приезжает из Гонконга в Париж, чтобы участвовать в опасной операции, цель которой — заманить в ловушку и взять с поличным крупного наркобарона. Но дела идут совершенно непредсказуемо.
Герой попадает в двойную ловушку и становится подозреваемым в убийстве c неопровержимым уликами против него. Его жизнь теперь зависит от того, сумеет ли он уйти от преследования и доказать свою невиновность.

Продолжительность: 01:38:15
Перевод: Профессиональный (полное дублирование)


Качество: BDRip 1080p
Контейнер: MKV
Видео: x264 / 9,5 Mbps / 1920x812 / 23.976 fps / 2,35:1 / L4.1
Аудио 1: Русский AC3 / 448 kbps / 48 kHz
Аудио 2: Английский DTS / 5.1 / 1509 kbps / 48 kHz
Cубтитры : Отсутсвуют

Общее
Формат : Matroska
Версия формата : Version 4 / Version 2
Размер файла : 7,89 Гбайт
Продолжительность : 1 ч. 38 м.
Общий поток : 11,5 Мбит/сек
Название фильма : Kiss of the Dragon (2001) [Olympus HDFilms]
Дата кодирования : UTC 2013-06-09 15:31:08
Программа кодирования : mkvmerge v6.2.0 ('Promised Land') built on Apr 28 2013 12:22:01
Библиотека кодирования : libebml v1.3.0 + libmatroska v1.4.0

Видео
Идентификатор : 1
Формат : AVC
Формат/Информация : Advanced Video Codec
Профиль формата : High@L4.1
Параметр CABAC формата : Да
Параметр ReFrames формата : 5 кадров
Параметр GOP формата : N=1
Идентификатор кодека : V_MPEG4/ISO/AVC
Продолжительность : 1 ч. 38 м.
Битрейт : 9539 Кбит/сек
Ширина : 1920 пикселей
Высота : 812 пикселей
Соотношение сторон : 2,35:1
Режим частоты кадров : Постоянный
Частота кадров : 23,976 кадра/сек
Цветовое пространство : YUV
Субдискретизация насыщенности : 4:2:0
Битовая глубина : 8 бит
Тип развёртки : Прогрессивная
Бит/(Пиксели*Кадры) : 0.255
Размер потока : 6,39 Гбайт (81%)
Заголовок : 9539kbps x264 1080p
Библиотека кодирования : x264 core 76 r1268 d542926
Настройки программы : cabac=1 / ref=5 / deblock=1:-3:-3 / analyse=0x3:0x113 / me=umh / subme=10 / psy=1 / psy_rd=1.0:0.0 / mixed_ref=1 / me_range=32 / chroma_me=1 / trellis=2 / 8x8dct=1 / cqm=0 / deadzone=21,11 / chroma_qp_offset=-2 / threads=12 / nr=0 / decimate=1 / mbaff=0 / bframes=3 / b_pyramid=0 / b_adapt=2 / b_bias=0 / direct=3 / wpredb=1 / keyint=250 / keyint_min=25 / scenecut=40 / rc_lookahead=0 / rc=2pass / mbtree=0 / bitrate=9539 / ratetol=1.0 / qcomp=0.60 / qpmin=10 / qpmax=51 / qpstep=4 / cplxblur=20.0 / qblur=0.5 / vbv_maxrate=50000 / vbv_bufsize=50000 / ip_ratio=1.40 / pb_ratio=1.30 / aq=1:0.80
Язык : English
Default : Да
Forced : Нет

Аудио #1
Идентификатор : 2
Формат : AC-3
Формат/Информация : Audio Coding 3
Расширение режима : CM (complete main)
Параметр Endianness формата : Big
Идентификатор кодека : A_AC3
Продолжительность : 1 ч. 38 м.
Вид битрейта : Постоянный
Битрейт : 448 Кбит/сек
Каналы : 6 каналов
Расположение каналов : Front: L C R, Side: L R, LFE
Частота : 48,0 КГц
Битовая глубина : 16 бит
Метод сжатия : С потерями
Размер потока : 315 Мбайт (4%)
Заголовок : 448kbps 6ch AC-3 [Dublyaj]
Язык : Russian
Default : Да
Forced : Нет

Аудио #2
Идентификатор : 3
Формат : DTS
Формат/Информация : Digital Theater Systems
Режим : 16
Параметр Endianness формата : Big
Идентификатор кодека : A_DTS
Продолжительность : 1 ч. 38 м.
Вид битрейта : Постоянный
Битрейт : 1509 Кбит/сек
Каналы : 6 каналов
Расположение каналов : Front: L C R, Side: L R, LFE
Частота : 48,0 КГц
Битовая глубина : 24 бит
Метод сжатия : С потерями
Размер потока : 1,04 Гбайт (13%)
Заголовок : 1510kbps 6ch DTS
Язык : English
Default : Нет
Forced : Нет



загрузка...
Правила, инструкции, FAQ!!!
Торрент  Добавлен [10 июн 2013, 09:22] Скачать торрент
Скачать торрент
[ Размер 20.29 КБ / Просмотров 7 ]

Статус  
 
Размер  7.89 ГБ
Приватный: Нет (DHT включён)
.torrent скачан  6
Как залить торрент? | Как скачать Torrent? | Как смотреть и слушать онлайн?  


     Отправить личное сообщение
   
Страница 1 из 1
Показать сообщения за:  Поле сортировки  
Начать новую тему Ответить на тему

   Похожие торренты   Автор   Ответы   Просмотры   Последнее сообщение 
В этой теме нет новых непрочитанных сообщений. Скачать торрент Проверен Поцелуй навылет / Kiss Kiss Bang Bang (2005) BDRip 1080p | D,A

в форуме 720p | 1080p, Размер: 7.76 ГБ, Здоровье: 100%

Anonymous

0
105|20

48
278

01 сен 2014, 13:48

Anonymous Перейти к последнему сообщению

В этой теме нет новых непрочитанных сообщений. Скачать торрент Проверен Как приручить дракона 2 / How to Train Your Dragon 2 (2014) BDRip 1080p | Лицензия

в форуме Зарубежные мультфильмы (HD Video), Размер: 7.76 ГБ, Здоровье: 100%

Anonymous

0
182|56

115
997

18 окт 2014, 21:44

Anonymous Перейти к последнему сообщению

В этой теме нет новых непрочитанных сообщений. Скачать торрент Проверен Врата дракона / Long men fei jia / The Flying Swords of Dragon Gate (2011) BDRip [1080p] 3D [Горизонтальная анаморфная стереопара]

в форуме HD-Video в 3D, Размер: 10.59 ГБ, Здоровье: 100%

Anonymous

0
2|0

60
0

12 июл 2014, 11:23

Anonymous Перейти к последнему сообщению

В этой теме нет новых непрочитанных сообщений. Скачать торрент Проверен Врата дракона / Long men fei jia / The Flying Swords of Dragon Gate (2011) BDRip [1080p] 3D [Вертикальная анаморфная стереопара]

в форуме HD-Video в 3D, Размер: 11.67 ГБ, Здоровье: ???%

Anonymous

0
0|1

63
0

12 июл 2014, 11:20

Anonymous Перейти к последнему сообщению

В этой теме нет новых непрочитанных сообщений. Скачать торрент Проверен Гнездо дракона в 3Д / Dragon Nest: Warriors' Dawn 3D (Юэфэн Сонг / Yuefeng Song) [2014, Мультфильм, Фэнтези, Приключения, Семейный, BDrip, 1080p] OverUnder / Вертикальная стереопара

в форуме 3D Мультфильмы, Размер: 11.05 ГБ, Здоровье: 0%

Anonymous

0
0|0

5
0

07 сен 2016, 18:01

Anonymous Перейти к последнему сообщению



Сейчас этот форум просматривают: нет зарегистрированных пользователей и гости: 5


Вы не можете начинать темы
Вы не можете отвечать на сообщения
Вы не можете редактировать свои сообщения
Вы не можете удалять свои сообщения
Вы не можете добавлять вложения

Перейти:  

!ВНИМАНИЕ!
 Ресурс не предоставляет электронные версии произведений, а занимается лишь коллекционированием и каталогизацией ссылок, присылаемых и публикуемых на форуме нашими читателями. Если вы являетесь правообладателем какого-либо представленного материала и не желаете чтобы ссылка на него находилась в нашем каталоге, свяжитесь с нами и мы незамедлительно удалим её. Файлы для обмена на трекере предоставлены пользователями сайта, и администрация не несёт ответственности за их содержание. Просьба не заливать файлы, защищенные авторскими правами, а также файлы нелегального содержания!