На всех торрентах на трекере установлена скидка на скачивание в размере 100 процентов(а).
 Возможность скачивания торрента НЕ зависит от ограничений при низком ратио, низком аплоаде, требуемом ратио или требуемом аплоаде.


Начать новую тему Ответить на тему
Статистика раздачи
Размер: 1.41 ГБ | Добавлен: 09 июн 2013, 08:53 | Скачали: 0
Сидеров: 0  [0 байт/сек]    Личеров: 0  [0 байт/сек]
Пред. тема | След. тема 

Автор
Сообщение

СообщениеДобавлено: 09 июн 2013, 08:53 

Год выпуска: 2013
Производство: Великобритания, США / Fox Searchlight Pictures, Indian Paintbrush, Scott Free Productions
Жанр: Триллер, драма, детектив
Продолжительность: 01:38:55
Перевод: Любительский (одноголосый закадровый) den904
Субтитры: Английские


Режиссер: Пак Чхан Ук / Park Chan Wook

В фильме снимались: Миа Васиковска, Мэттью Гуд, Николь Кидман, Дэвид Элфорд, Пег Аллен, Лорен Э., Роман Филлис, Соммервиль Хармони Корин, Лукас Тилл, Олден Эйренрайк

Вкратце: После смерти отца к девушке и её эмоционально неустойчивой матери приезжает их загадочный дядя.



Бюджет: $12 000 000





Качество: BDRip-AVC [Stoker.2013.1080p.BluRay.AVC.DTS-HD.MA.5.1-PublicHD]
Формат: MKV
Видео: H.264, 960x400 (2,40:1), 23,976 кадр/сек, 1211 Кбит/сек, 0.132 bit/pixel
Аудио#1: 48 kHz, AC3 Dolby Digital, 3/2 (L,C,R,l,r) + LFE ch, 384.00 kbps | RUS
Аудио#2: 48 kHz, AC3 Dolby Digital, 3/2 (L,C,R,l,r) + LFE ch, 448.00 kbps | ENG


Автор рипа:


Общее
Уникальный идентификатор : 188903456178651656085139376982479891966 (0x8E1D7B770C2918ECA60E233B53C86DFE)
Полное имя : I:ТриллерMatroska
Версия формата : Version 4 / Version 2
Размер файла : 1,41 Гбайт
Продолжительность : 1 ч. 38 м.
Общий поток : 2045 Кбит/сек
Название фильма : -=POTROKS=-
Дата кодирования : UTC 2013-06-08 19:46:34
Программа кодирования : mkvmerge v5.9.0 ('On The Loose') built on Dec 15 2012 16:39:58
Библиотека кодирования : libebml v1.3.0 + libmatroska v1.4.0

Видео
Идентификатор : 1
Формат : AVC
Формат/Информация : Advanced Video Codec
Профиль формата : High@L4.1
Параметр CABAC формата : Да
Параметр ReFrames формата : 12 кадров
Идентификатор кодека : V_MPEG4/ISO/AVC
Продолжительность : 1 ч. 38 м.
Битрейт : 1211 Кбит/сек
Ширина : 960 пикселей
Высота : 400 пикселей
Соотношение сторон : 2,40:1
Режим частоты кадров : Постоянный
Частота кадров : 23,976 кадра/сек
Цветовое пространство : YUV
Субдискретизация насыщенности : 4:2:0
Битовая глубина : 8 бит
Тип развёртки : Прогрессивная
Бит/(Пиксели*Кадры) : 0.132
Размер потока : 830 Мбайт (57%)
Заголовок : Stoker
Библиотека кодирования : x264 core 125 r2208 d9d2288
Настройки программы : cabac=1 / ref=12 / deblock=1:-3:-3 / analyse=0x3:0x133 / me=umh / subme=11 / psy=1 / psy_rd=0.99:0.00 / mixed_ref=1 / me_range=48 / chroma_me=1 / trellis=2 / 8x8dct=1 / cqm=0 / deadzone=21,11 / fast_pskip=0 / chroma_qp_offset=-2 / threads=9 / lookahead_threads=1 / sliced_threads=0 / nr=0 / decimate=1 / interlaced=0 / bluray_compat=0 / constrained_intra=0 / bframes=13 / b_pyramid=2 / b_adapt=2 / b_bias=0 / direct=3 / weightb=1 / open_gop=0 / weightp=2 / keyint=240 / keyint_min=23 / scenecut=40 / intra_refresh=0 / rc_lookahead=150 / rc=2pass / mbtree=1 / bitrate=1211 / ratetol=1.0 / qcomp=0.70 / qpmin=0 / qpmax=69 / qpstep=4 / cplxblur=20.0 / qblur=0.5 / vbv_maxrate=20000 / vbv_bufsize=20000 / nal_hrd=none / ip_ratio=1.35 / aq=2:0.90
Язык : English
Default : Да
Forced : Нет

Аудио #1
Идентификатор : 2
Формат : AC-3
Формат/Информация : Audio Coding 3
Расширение режима : CM (complete main)
Параметр Endianness формата : Big
Идентификатор кодека : A_AC3
Продолжительность : 1 ч. 38 м.
Вид битрейта : Постоянный
Битрейт : 384 Кбит/сек
Каналы : 6 каналов
Расположение каналов : Front: L C R, Side: L R, LFE
Частота : 48,0 КГц
Битовая глубина : 16 бит
Метод сжатия : С потерями
Размер потока : 272 Мбайт (19%)
Заголовок : VO | DD 5.1 @ 384 kbps - den904
Язык : Russian
Default : Да
Forced : Да

Аудио #2
Идентификатор : 3
Формат : AC-3
Формат/Информация : Audio Coding 3
Расширение режима : CM (complete main)
Параметр Endianness формата : Big
Идентификатор кодека : A_AC3
Продолжительность : 1 ч. 38 м.
Вид битрейта : Постоянный
Битрейт : 448 Кбит/сек
Каналы : 6 каналов
Расположение каналов : Front: L C R, Side: L R, LFE
Частота : 48,0 КГц
Битовая глубина : 16 бит
Метод сжатия : С потерями
Размер потока : 317 Мбайт (22%)
Заголовок : Original | DD 5.1 @ 448 kbps
Язык : English
Default : Нет
Forced : Нет

Текст
Идентификатор : 4
Формат : UTF-8
Идентификатор кодека : S_TEXT/UTF8
Идентификатор кодека/Информация : UTF-8 Plain Text
Язык : English
Default : Нет
Forced : Нет
загрузка...
Правила, инструкции, FAQ!!!
Торрент  Добавлен [09 июн 2013, 08:53] Скачать торрент
Скачать торрент
[ Размер 14.65 КБ / Просмотров 10 ]

Статус  
 
Размер  1.41 ГБ
Приватный: Нет (DHT включён)
.torrent скачан  0
Как залить торрент? | Как скачать Torrent? | Как смотреть и слушать онлайн?  


     Отправить личное сообщение
   
Страница 1 из 1
Показать сообщения за:  Поле сортировки  
Начать новую тему Ответить на тему

   Похожие торренты   Автор   Ответы   Просмотры   Последнее сообщение 
В этой теме нет новых непрочитанных сообщений. Скачать торрент Проверен Дракула Брэма Стокера / Bram Stoker's Dracula (1992) BDRip-AVC | Remastered | D, P, A

в форуме Ужасы, Размер: 4.87 ГБ, Здоровье: 100%

Гость

0
29|1

212
33

16 ноя 2015, 00:06

Гость Перейти к последнему сообщению

В этой теме нет новых непрочитанных сообщений. Скачать торрент Проверен Дракула Брэма Стокера / Bram Stoker's Dracula (1992) BDRip 720p | Mastered in 4K

в форуме 720p | 1080p, Размер: 13.19 ГБ, Здоровье: 100%

Гость

0
30|8

78
93

17 окт 2015, 18:34

Гость Перейти к последнему сообщению

В этой теме нет новых непрочитанных сообщений. Скачать торрент Дракула Брэма Стокера / Bram Stoker's Dracula (1992) BDRip 720p | Лицензия

в форуме 720p | 1080p, Размер: 3.27 ГБ, Здоровье: 100%

Anonymous

0
18|2

53
100

06 фев 2014, 14:15

Anonymous Перейти к последнему сообщению

В этой теме нет новых непрочитанных сообщений. Скачать торрент Bram Stoker - Cold Reading (2013) [FLAC|Lossless]<Progressive Rock>

в форуме Рок, Панк, Метал, Альтернатива, Размер: 395.59 МБ, Здоровье: 0%

Anonymous

0
0|0

41
0

16 мар 2014, 00:14

Anonymous Перейти к последнему сообщению

В этой теме нет новых непрочитанных сообщений. Скачать торрент Проверен Голодные игры. Дилогия / The Hunger Games. Dilogy (2012-2013) BDRip 720p

в форуме Дилогии, Размер: 22 ГБ, Здоровье: 6%

Anonymous

0
4|58

296
3

11 дек 2014, 21:53

Anonymous Перейти к последнему сообщению



Сейчас этот форум просматривают: нет зарегистрированных пользователей и гости: 1


Вы не можете начинать темы
Вы не можете отвечать на сообщения
Вы не можете редактировать свои сообщения
Вы не можете удалять свои сообщения
Вы не можете добавлять вложения

Перейти:  

!ВНИМАНИЕ!
 Ресурс не предоставляет электронные версии произведений, а занимается лишь коллекционированием и каталогизацией ссылок, присылаемых и публикуемых на форуме нашими читателями. Если вы являетесь правообладателем какого-либо представленного материала и не желаете чтобы ссылка на него находилась в нашем каталоге, свяжитесь с нами и мы незамедлительно удалим её. Файлы для обмена на трекере предоставлены пользователями сайта, и администрация не несёт ответственности за их содержание. Просьба не заливать файлы, защищенные авторскими правами, а также файлы нелегального содержания!