На всех торрентах на трекере установлена скидка на скачивание в размере 100 процентов(а).
 Возможность скачивания торрента НЕ зависит от ограничений при низком ратио, низком аплоаде, требуемом ратио или требуемом аплоаде.


Начать новую тему Ответить на тему
Статистика раздачи
Размер: 2.25 ГБ | Добавлен: 06 июн 2013, 09:32 | Скачали: 1
Сидеров: 0  [0 байт/сек]    Личеров: 0  [0 байт/сек]
Пред. тема | След. тема 

Автор
Сообщение

СообщениеДобавлено: 06 июн 2013, 09:32 

Название: Не говори никому
Оригинальное название: Ne le dis a personne
Год выхода: 2006
Жанр: триллер, драма, криминал, детектив
Режиссер: Гийом Кане

В фильме снимались: Франсуа Клюзе, Мари-Жозе Крозе, Андре Дюссолье, Кристин Скотт Томас, Франсуа Берлеан, Натали Бэй, Жан Рошфор, Марина Хандз, Жиль Лелуш, Филипп Лефевр, Флоранс Томассен, Оливье Маршаль, Гийом Кане, Брижит Катийон, Самир Гесми

Вкратце:
Восемь лет назад Марго Бек погибла от рук серийного убийцы. Однако после поимки маньяк признал за собой лишь восемь убийств — свое отношение к смерти Марго он всячески отрицал. Но определенные улики, найденные на теле жертвы, позволили обвинить его и в убийстве Марго. Муж убитой, Александр Бек, до сих пор не может оправиться после гибели жены. Он спасается от пагубных мыслей, с головой погрузившись в свою работу, а дружба с Элен Перкинс не дает ему полностью потерять связь с миром. Но когда рядом с тем местом, где было обнаружено тело Марго, находят еще два трупа и появляются новые улики, полиция возобновляет расследование. В то же время Александр получает по электронной почте странное письмо, в котором содержится ссылка на веб-камеру и указано время, когда камера начинает работать.

Страна: Франция
Студия: Canal+ [fr], Caneo Films
Продолжительность: 02:10:56
Перевод: Профессиональный (дублированный)

Качество: BDRip [720p]
Видео: 1280x546, 2 006 Кбит/сек, 24,000 кадр/сек, AVC, x264,2.35:1, 0.120 Бит/[Пиксели*Кадры], 2pass
Аудио: AC-3, 448 Кбит/сек, 6 канала(ов), 48,0 КГц




Релиз от:





Format : Matroska
Format version : Version 4 / Version 2
File size : 2.25 GiB
Duration : 2h 10mn
Overall bit rate : 2 455 Kbps
Encoded date : UTC 2013-06-05 19:48:30
Writing application : mkvmerge v6.1.0 ('Old Devil') built on Mar 2 2013 14:32:37
Writing library : libebml v1.3.0 + libmatroska v1.4.0

Video
ID : 2
Format : AVC
Format/Info : Advanced Video Codec
Format profile : High@L3.1
Format settings, CABAC : Yes
Format settings, ReFrames : 4 frames
Codec ID : V_MPEG4/ISO/AVC
Duration : 2h 10mn
Bit rate : 2 006 Kbps
Width : 1 280 pixels
Height : 546 pixels
Display aspect ratio : 2.35:1
Original display aspect ratio : 2.35:1
Frame rate mode : Constant
Frame rate : 24.000 fps
Color space : YUV
Chroma subsampling : 4:2:0
Bit depth : 8 bits
Scan type : Progressive
Bits/(Pixel*Frame) : 0.120
Stream size : 1.79 GiB (80%)
Writing library : x264 core 130 r2273 b3065e6
Encoding settings : cabac=1 / ref=3 / deblock=1:0:0 / analyse=0x3:0x133 / me=hex / subme=7 / psy=1 / psy_rd=1.00:0.00 / mixed_ref=1 / me_range=16 / chroma_me=1 / trellis=1 / 8x8dct=1 / cqm=0 / deadzone=21,11 / fast_pskip=1 / chroma_qp_offset=-2 / threads=6 / lookahead_threads=1 / sliced_threads=0 / nr=0 / decimate=1 / interlaced=0 / bluray_compat=0 / constrained_intra=0 / bframes=3 / b_pyramid=2 / b_adapt=1 / b_bias=0 / direct=1 / weightb=1 / open_gop=0 / weightp=2 / keyint=240 / keyint_min=24 / scenecut=40 / intra_refresh=0 / rc_lookahead=40 / rc=2pass / mbtree=1 / bitrate=2006 / ratetol=1.0 / qcomp=0.60 / qpmin=0 / qpmax=69 / qpstep=4 / cplxblur=20.0 / qblur=0.5 / ip_ratio=1.40 / aq=1:1.00
Language : English
Default : Yes
Forced : No

Audio
ID : 1
Format : AC-3
Format/Info : Audio Coding 3
Mode extension : CM (complete main)
Format settings, Endianness : Big
Codec ID : A_AC3
Duration : 2h 10mn
Bit rate mode : Constant
Bit rate : 448 Kbps
Channel(s) : 6 channels
Channel positions : Front: L C R, Side: L R, LFE
Sampling rate : 48.0 KHz
Bit depth : 16 bits
Compression mode : Lossy
Stream size : 420 MiB (18%)
Default : Yes
Forced : No
загрузка...
Правила, инструкции, FAQ!!!
Торрент  Добавлен [06 июн 2013, 09:32] Скачать торрент
Скачать торрент
[ Размер 11.78 КБ / Просмотров 8 ]

Статус  
 
Размер  2.25 ГБ
Приватный: Нет (DHT включён)
.torrent скачан  1
Как залить торрент? | Как скачать Torrent? | Как смотреть и слушать онлайн?  


     Отправить личное сообщение
   
Страница 1 из 1
Показать сообщения за:  Поле сортировки  
Начать новую тему Ответить на тему

   Похожие торренты   Автор   Ответы   Просмотры   Последнее сообщение 
В этой теме нет новых непрочитанных сообщений. Скачать торрент Не говори никому / Ne le dis a personne (Гийом Кане / Guillaume Canet) [2006, Франция, Триллер, драма, BDRip-AVC] DUB + AVO + original + Sub (rus,eng)

в форуме 720p | 1080p, Размер: 3.89 ГБ, Здоровье: 0%

Anonymous

0
0|0

23
0

14 фев 2014, 07:44

Anonymous Перейти к последнему сообщению

В этой теме нет новых непрочитанных сообщений. Скачать торрент Не говори никому / Ne le dis a personne (Гийом Кане / Guillaume Canet) [2006, триллер, драма, криминал, HDRip] DUB

в форуме Триллеры, Размер: 790.54 МБ, Здоровье: 0%

Anonymous

0
0|0

33
0

16 апр 2014, 07:51

Anonymous Перейти к последнему сообщению

В этой теме нет новых непрочитанных сообщений. Скачать торрент Проверен Алафер Берк | Никому не говори (2014) [FB2]

в форуме Детективы и Боевики, Размер: 1.47 МБ, Здоровье: 100%

Anonymous

0
13|1

35
0

20 сен 2014, 22:13

Anonymous Перейти к последнему сообщению

В этой теме нет новых непрочитанных сообщений. Скачать торрент Проверен Говори / Speak (2004) BDRip 720p

в форуме 720p | 1080p, Размер: 5.92 ГБ, Здоровье: 100%

Гость

0
40|30

56
57

01 фев 2015, 22:43

Гость Перейти к последнему сообщению

В этой теме нет новых непрочитанных сообщений. Скачать торрент Всегда говори «ДА» / Yes Man (Пейтон Рид / Peyton Reed) [2008, комедия, BDRip-AVC, 720p] Dub

в форуме 720p | 1080p, Размер: 2.14 ГБ, Здоровье: 0%

Anonymous

0
0|0

26
0

17 фев 2014, 08:06

Anonymous Перейти к последнему сообщению



Сейчас этот форум просматривают: нет зарегистрированных пользователей и гости: 2


Вы не можете начинать темы
Вы не можете отвечать на сообщения
Вы не можете редактировать свои сообщения
Вы не можете удалять свои сообщения
Вы не можете добавлять вложения

Перейти:  

!ВНИМАНИЕ!
 Ресурс не предоставляет электронные версии произведений, а занимается лишь коллекционированием и каталогизацией ссылок, присылаемых и публикуемых на форуме нашими читателями. Если вы являетесь правообладателем какого-либо представленного материала и не желаете чтобы ссылка на него находилась в нашем каталоге, свяжитесь с нами и мы незамедлительно удалим её. Файлы для обмена на трекере предоставлены пользователями сайта, и администрация не несёт ответственности за их содержание. Просьба не заливать файлы, защищенные авторскими правами, а также файлы нелегального содержания!