На всех торрентах на трекере установлена скидка на скачивание в размере 100 процентов(а).
 Возможность скачивания торрента НЕ зависит от ограничений при низком ратио, низком аплоаде, требуемом ратио или требуемом аплоаде.


Начать новую тему Ответить на тему
Статистика раздачи
Размер: 4.36 ГБ | Добавлен: 06 июн 2013, 09:13 | Скачали: 0
Сидеров: 0  [0 байт/сек]    Личеров: 0  [0 байт/сек]
Пред. тема | След. тема 

Автор
Сообщение

СообщениеДобавлено: 06 июн 2013, 09:13 

Название: Три часа на побег
Оригинальное название: À bout portant
Год выхода: 2010
Жанр: Боевик, триллер, криминал
Режиссер: Фред Кавайе

В фильме снимались: Жилль Лелуш, Рошди Зем, Жерар Ланвен, Елена Анайя, Мирей Перье, Клер Перо, Мусса Мааскри, Пьер Бенуа, Валери Дэшвуд, Вёрджил Брэмли

Вкратце:
Профессия Сэмюэля Перрье — спасать людей. Но в этот раз медбрат спас ну совсем «не того» парня. И вот теперь его беременную жену похитили бандиты, чтоб заставить Сэмюэля помочь их пахану свалить из больницы. Чтобы спасти жену и выжить самому, ему предстоит выиграть смертельные гонки на выживание с бандитами и полицейскими не только по улицам Парижа но и под землей.
Страна: Франция
Продолжительность: 01:24:01
Перевод: Профессиональный (многоголосый)

Качество: BDRip [1080p]
Видео: 1920x816, 6 994 Кбит/сек, 23,976 кадр/сек, AVC, x264, 2.35:1, 0.186 Бит/[Пиксели*Кадры], 2pass
Аудио: AC-3, 448 Кбит/сек, 6 канала(ов), 48,0 КГц
Размер: 4,37 ГБ



Релиз от:





Format : Matroska
Format version : Version 4 / Version 2
File size : 4.36 GiB
Duration : 1h 24mn
Overall bit rate : 7 435 Kbps
Encoded date : UTC 2013-06-05 18:41:55
Writing application : mkvmerge v6.1.0 ('Old Devil') built on Mar 2 2013 14:32:37
Writing library : libebml v1.3.0 + libmatroska v1.4.0

Video
ID : 2
Format : AVC
Format/Info : Advanced Video Codec
Format profile : High@L4.0
Format settings, CABAC : Yes
Format settings, ReFrames : 4 frames
Codec ID : V_MPEG4/ISO/AVC
Duration : 1h 24mn
Bit rate : 6 994 Kbps
Width : 1 920 pixels
Height : 816 pixels
Display aspect ratio : 2.35:1
Original display aspect ratio : 2.35:1
Frame rate mode : Constant
Frame rate : 24.000 fps
Color space : YUV
Chroma subsampling : 4:2:0
Bit depth : 8 bits
Scan type : Progressive
Bits/(Pixel*Frame) : 0.186
Stream size : 4.01 GiB (92%)
Writing library : x264 core 130 r2273 b3065e6
Encoding settings : cabac=1 / ref=3 / deblock=1:0:0 / analyse=0x3:0x133 / me=hex / subme=7 / psy=1 / psy_rd=1.00:0.00 / mixed_ref=1 / me_range=16 / chroma_me=1 / trellis=1 / 8x8dct=1 / cqm=0 / deadzone=21,11 / fast_pskip=1 / chroma_qp_offset=-2 / threads=6 / lookahead_threads=1 / sliced_threads=0 / nr=0 / decimate=1 / interlaced=0 / bluray_compat=0 / constrained_intra=0 / bframes=3 / b_pyramid=2 / b_adapt=1 / b_bias=0 / direct=1 / weightb=1 / open_gop=0 / weightp=2 / keyint=240 / keyint_min=24 / scenecut=40 / intra_refresh=0 / rc_lookahead=40 / rc=2pass / mbtree=1 / bitrate=6994 / ratetol=1.0 / qcomp=0.60 / qpmin=0 / qpmax=69 / qpstep=4 / cplxblur=20.0 / qblur=0.5 / ip_ratio=1.40 / aq=1:1.00
Language : English
Default : Yes
Forced : No

Audio
ID : 1
Format : AC-3
Format/Info : Audio Coding 3
Mode extension : CM (complete main)
Format settings, Endianness : Big
Codec ID : A_AC3
Duration : 1h 24mn
Bit rate mode : Constant
Bit rate : 448 Kbps
Channel(s) : 6 channels
Channel positions : Front: L C R, Side: L R, LFE
Sampling rate : 48.0 KHz
Bit depth : 16 bits
Compression mode : Lossy
Stream size : 269 MiB (6%)
Default : Yes
Forced : No
загрузка...
Правила, инструкции, FAQ!!!
Торрент  Добавлен [06 июн 2013, 09:13] Скачать торрент
Скачать торрент
[ Размер 22.38 КБ / Просмотров 8 ]

Статус  
 
Размер  4.36 ГБ
Приватный: Нет (DHT включён)
.torrent скачан  0
Как залить торрент? | Как скачать Torrent? | Как смотреть и слушать онлайн?  


     Отправить личное сообщение
   
Страница 1 из 1
Показать сообщения за:  Поле сортировки  
Начать новую тему Ответить на тему

   Похожие торренты   Автор   Ответы   Просмотры   Последнее сообщение 
В этой теме нет новых непрочитанных сообщений. Скачать торрент Проверен Три часа на побег (В упор) / À bout portant (Point Blank) (2010) BDRip 1080p | P,A,L

в форуме 720p | 1080p, Размер: 7.87 ГБ, Здоровье: 100%

Anonymous

0
36|0

45
1781

26 июл 2014, 07:53

Anonymous Перейти к последнему сообщению

В этой теме нет новых непрочитанных сообщений. Скачать торрент Проверен Три часа на побег / À bout portant (2010) DVDRip

в форуме Боевики, Размер: 1.36 ГБ, Здоровье: 100%

Anonymous

0
65|2

45
3431

26 июл 2014, 07:57

Anonymous Перейти к последнему сообщению

В этой теме нет новых непрочитанных сообщений. Скачать торрент Проверен В упор / А bout portant (2010) [720p] BDRip

в форуме 720p | 1080p, Размер: 3.41 ГБ, Здоровье: 100%

Anonymous

0
139|5

37
0

03 янв 2015, 17:42

Anonymous Перейти к последнему сообщению

В этой теме нет новых непрочитанных сообщений. Скачать торрент Побег из Шоушенка / The Shawshank Redemption (1994) BDRip 1080p

в форуме 720p | 1080p, Размер: 7.76 ГБ, Здоровье: 100%

Anonymous

0
62|7

21
82

18 дек 2013, 10:23

Anonymous Перейти к последнему сообщению

В этой теме нет новых непрочитанных сообщений. Скачать торрент Побег из тюрьмы / Prison Break [S01-04 + Финальный побег] (2005-2009) BDRip 720p

в форуме Зарубежные сериалы, Размер: 59.49 ГБ, Здоровье: 100%

Anonymous

0
47|0

103
0

15 мар 2014, 21:20

Anonymous Перейти к последнему сообщению



Сейчас этот форум просматривают: нет зарегистрированных пользователей и гости: 3


Вы не можете начинать темы
Вы не можете отвечать на сообщения
Вы не можете редактировать свои сообщения
Вы не можете удалять свои сообщения
Вы не можете добавлять вложения

Перейти:  

!ВНИМАНИЕ!
 Ресурс не предоставляет электронные версии произведений, а занимается лишь коллекционированием и каталогизацией ссылок, присылаемых и публикуемых на форуме нашими читателями. Если вы являетесь правообладателем какого-либо представленного материала и не желаете чтобы ссылка на него находилась в нашем каталоге, свяжитесь с нами и мы незамедлительно удалим её. Файлы для обмена на трекере предоставлены пользователями сайта, и администрация не несёт ответственности за их содержание. Просьба не заливать файлы, защищенные авторскими правами, а также файлы нелегального содержания!