На всех торрентах на трекере установлена скидка на скачивание в размере 100 процентов(а).
 Возможность скачивания торрента НЕ зависит от ограничений при низком ратио, низком аплоаде, требуемом ратио или требуемом аплоаде.


Начать новую тему Ответить на тему
Статистика раздачи
Размер: 7.95 ГБ | Добавлен: 05 июн 2013, 17:01 | Скачали: 0
Сидеров: 0  [0 байт/сек]    Личеров: 0  [0 байт/сек]
Пред. тема | След. тема 

Автор
Сообщение

СообщениеДобавлено: 05 июн 2013, 17:01 

Название: Кто Вы, Мистер Брукс?
Оригинальное название: Mr. Brooks
Год выхода: 2007
Жанр: Психологический триллер, драма, криминал, детектив
Режиссер: Брюс А. Эванс

В фильме снимались: Кевин Костнер, Деми Мур, Дэйн Кук, Уильям Хёрт, Марж Хелгенбергер, Рубен Сантьяго-Хадсон, Даниэль Панабэйкер, Аиша Хиндс, Линдси Краус, Джейсон Льюис, Рейко Эйлсворт, Мэтт Шульце, Трэйси Динвидди, Ясмин Делавари, Майкл Коул, Джим Фарнум, Меган Браун, Росс Френсис, Кит Гвин, Маркус Хестер, Джейми МакШейн, Лаура Бэйли, Джон Пол Буркхарт, Мэттью Пози, Брэндон Олив, Рози Кафарелли, Бен Гласс, Канин Дж. Хауэлл, Стив Култер, Стивен Майкл Айерс, Брэд Эванс, Дэвид Гиббонс, Доди Браун, Тед Фергюсон, Чак Хэлли, Колвин Роберсон, Ван Уайт, Стивен Э. Уильямс

Вкратце:
Уважаемый бизнесмен и отец семейства, мистер Брукс скрывает тайну. За фасадом заботливого мужа и нежного отца скрывается жестокий убийца. На протяжении долгого времени эти две личности безуспешно борются между собой, и ни одна из них не может одержать верх. В результате убийства продолжаются, и, кажется, ничто не может оборвать эту кровавую цепь преступлений. Однако Бруксу не повезло. Свидетелем его последнего злодеяния становится сумасшедший фотограф. Он начинает шантажировать преступника, но у него особые требования. В отличие от обычных шантажистов, фотографа не интересуют деньги. Он хочет присутствовать при следующих убийствах. У героя остается сомнительный выбор — пойти на поводу у шантажиста или найти в себе силы победить свой порок и вернуться к нормальной жизни...



Выпущено: США, Eden Rock Media, Element Films, Metro-Goldwyn-Mayer, Relativity Media, Tig Productions
Продолжительность: 02:00:42
Перевод: Дублированный
Субтитры: Русские
Чаптеры: есть

Качество: BDRip 1080p (исходник Blu-ray Disc)
Видео: 1920х1040, 8 789 Kbps Кбит/сек, 23.976 кадр/сек, AVC, x264, 0.184 Бит/(Пиксели*Кадры), 2-pass
Аудио: AC-3, 640 Кбит/сек, 6 канала(ов), 48,0 КГц



Format : Matroska
Format version : Version 4 / Version 2
File size : 7.95 GiB
Duration : 2h 0mn
Overall bit rate : 9 417 Kbps
Movie name : Кто Вы, Мистер Брукс?.(2007).BDRip.1080p.NoLimits-Team
Encoded date : UTC 2013-06-05 09:15:09
Writing application : mkvmerge v6.2.0 ('Promised Land') built on Apr 28 2013 12:22:01
Writing library : libebml v1.3.0 + libmatroska v1.4.0

Video
ID : 1
Format : AVC
Format/Info : Advanced Video Codec
Format profile : High@L4.1
Format settings, CABAC : Yes
Format settings, ReFrames : 4 frames
Codec ID : V_MPEG4/ISO/AVC
Duration : 2h 0mn
Bit rate : 8 789 Kbps
Width : 1 920 pixels
Height : 1 040 pixels
Display aspect ratio : 1.85:1
Frame rate mode : Constant
Frame rate : 23.976 fps
Color space : YUV
Chroma subsampling : 4:2:0
Bit depth : 8 bits
Scan type : Progressive
Bits/(Pixel*Frame) : 0.184
Stream size : 7.25 GiB (91%)
Title : Кто Вы, Мистер Брукс?.(2007).BDRip.1080p от NoLimits-Team
Writing library : x264 core 133 r2334 a3ac64b
Encoding settings : cabac=1 / ref=4 / deblock=1:0:0 / analyse=0x3:0x113 / me=umh / subme=11 / psy=1 / psy_rd=1.00:0.10 / mixed_ref=1 / me_range=32 / chroma_me=1 / trellis=2 / 8x8dct=1 / cqm=0 / deadzone=21,11 / fast_pskip=0 / chroma_qp_offset=-3 / threads=6 / lookahead_threads=1 / sliced_threads=0 / nr=0 / decimate=0 / interlaced=0 / bluray_compat=0 / constrained_intra=0 / bframes=7 / b_pyramid=2 / b_adapt=2 / b_bias=0 / direct=3 / weightb=1 / open_gop=0 / weightp=2 / keyint=240 / keyint_min=23 / scenecut=40 / intra_refresh=0 / rc_lookahead=60 / rc=2pass / mbtree=1 / bitrate=8789 / ratetol=1.0 / qcomp=0.60 / qpmin=0 / qpmax=69 / qpstep=4 / cplxblur=20.0 / qblur=0.5 / ip_ratio=1.40 / aq=1:0.95
Language : English
Default : Yes
Forced : No

Audio
ID : 2
Format : AC-3
Format/Info : Audio Coding 3
Mode extension : CM (complete main)
Format settings, Endianness : Big
Codec ID : A_AC3
Duration : 2h 0mn
Bit rate mode : Constant
Bit rate : 640 Kbps
Channel(s) : 6 channels
Channel positions : Front: L C R, Side: L R, LFE
Sampling rate : 48.0 KHz
Bit depth : 16 bits
Compression mode : Lossy
Stream size : 553 MiB (7%)
Title : Дублированный
Language : Russian
Default : Yes
Forced : No

Text
ID : 3
Format : UTF-8
Codec ID : S_TEXT/UTF8
Codec ID/Info : UTF-8 Plain Text
Title : Русские
Language : Russian
Default : No
Forced : No

Menu
00:00:00.000 : en:Chapter
00:02:57.760 : en:Chapter 02
00:05:06.055 : en:Chapter 03
00:05:56.981 : en:Chapter 04
00:07:24.610 : en:Chapter 05
00:08:49.028 : en:Chapter 06
00:12:09.645 : en:Chapter 07
00:14:09.056 : en:Chapter 08
00:16:42.668 : en:Chapter 09
00:17:59.286 : en:Chapter 10
00:23:22.067 : en:Chapter 11
00:28:13.400 : en:Chapter 12
00:31:53.745 : en:Chapter 13
00:34:57.804 : en:Chapter 14
00:37:57.483 : en:Chapter 15
00:41:15.848 : en:Chapter 16
00:50:13.135 : en:Chapter 17
00:53:17.861 : en:Chapter 18
00:56:22.921 : en:Chapter 19
01:03:29.764 : en:Chapter 20
01:11:49.138 : en:Chapter 21
01:15:25.812 : en:Chapter 22
01:21:28.925 : en:Chapter 23
01:26:44.741 : en:Chapter 24
01:30:22.708 : en:Chapter 25
01:35:43.404 : en:Chapter 26
01:38:34.909 : en:Chapter 27
01:41:41.136 : en:Chapter 28
01:44:45.821 : en:Chapter 29
01:48:09.483 : en:Chapter 30
01:54:32.323 : en:Chapter 31


Релиз Группа: Автор Рипа:
загрузка...
Правила, инструкции, FAQ!!!
Торрент  Добавлен [05 июн 2013, 17:01] Скачать торрент
Скачать торрент
[ Размер 40.19 КБ / Просмотров 3 ]

Статус  
 
Размер  7.95 ГБ
Приватный: Нет (DHT включён)
.torrent скачан  0
Как залить торрент? | Как скачать Torrent? | Как смотреть и слушать онлайн?  


     Отправить личное сообщение
   
Страница 1 из 1
Показать сообщения за:  Поле сортировки  
Начать новую тему Ответить на тему

   Похожие торренты   Автор   Ответы   Просмотры   Последнее сообщение 
В этой теме нет новых непрочитанных сообщений. Скачать торрент Как знать... / How Do You Know? (Джеймс Л. Брукс / James L. Brooks) [2010, США, Драма, мелодрама, комедия, BDRip] Dub

в форуме Драмы, Мелодрамы, Размер: 1.46 ГБ, Здоровье: 100%

Anonymous

0
14|5

50
0

01 апр 2014, 09:37

Anonymous Перейти к последнему сообщению

В этой теме нет новых непрочитанных сообщений. Скачать торрент Да, возможно / Да, нет, наверное / Definitely, Maybe (Адам Брукс / Adam Brooks) [2008, США, комедия, HDTVRip]

в форуме Комедии, Размер: 2.18 ГБ, Здоровье: 0%

Anonymous

0
0|0

24
0

19 фев 2014, 09:54

Anonymous Перейти к последнему сообщению

В этой теме нет новых непрочитанных сообщений. Скачать торрент Проверен Профессионально - Brooks F.P. Jr. / Брукс Ф. - The Mythical Man-Month / Мифический человеко-месяц [2000, DjVu/PDF, RUS]

в форуме Веб-дизайн и программирование, Размер: 11.97 МБ, Здоровье: 100%

Anonymous

0
34|11

1
1

22 окт 2016, 14:17

Anonymous Перейти к последнему сообщению

В этой теме нет новых непрочитанных сообщений. Скачать торрент Испанский-английский / Spanglish (Джеймс Л. Брукс / James L. Brooks) [2004, Комедия, мелодрама, драма, HDTVRip] Dub

в форуме Комедии, Размер: 1.96 ГБ, Здоровье: 100%

Anonymous

0
28|9

61
0

22 апр 2014, 11:38

Anonymous Перейти к последнему сообщению

В этой теме нет новых непрочитанных сообщений. Скачать торрент Проверен Лучше не бывает / As Good as It Gets (Джеймс Л. Брукс / James L. Brooks) [1997, США, драма, мелодрама, комедия, HDTVRip] Dub

в форуме Драмы, Мелодрамы, Размер: 1.46 ГБ, Здоровье: 100%

Anonymous

0
56|19

41
0

27 июл 2014, 15:01

Anonymous Перейти к последнему сообщению



Сейчас этот форум просматривают: нет зарегистрированных пользователей и гости: 1


Вы не можете начинать темы
Вы не можете отвечать на сообщения
Вы не можете редактировать свои сообщения
Вы не можете удалять свои сообщения
Вы не можете добавлять вложения

Перейти:  

!ВНИМАНИЕ!
 Ресурс не предоставляет электронные версии произведений, а занимается лишь коллекционированием и каталогизацией ссылок, присылаемых и публикуемых на форуме нашими читателями. Если вы являетесь правообладателем какого-либо представленного материала и не желаете чтобы ссылка на него находилась в нашем каталоге, свяжитесь с нами и мы незамедлительно удалим её. Файлы для обмена на трекере предоставлены пользователями сайта, и администрация не несёт ответственности за их содержание. Просьба не заливать файлы, защищенные авторскими правами, а также файлы нелегального содержания!