На всех торрентах на трекере установлена скидка на скачивание в размере 100 процентов(а).
 Возможность скачивания торрента НЕ зависит от ограничений при низком ратио, низком аплоаде, требуемом ратио или требуемом аплоаде.


Начать новую тему Ответить на тему
Статистика раздачи
Размер: 1.77 ГБ | Добавлен: 05 июн 2013, 16:48 | Скачали: 0
Сидеров: 0  [0 байт/сек]    Личеров: 0  [0 байт/сек]
Пред. тема | След. тема 

Автор
Сообщение

СообщениеДобавлено: 05 июн 2013, 16:48 

Название: Девственники, берегитесь!
Оригинальное название: Love Bite
Год выпуска: 2012
Жанр: Ужасы, комедия
Режиссер: Энди де Эммони

В фильме снимались: Джессика Зор, Тимоти Сполл, Эдвард Спелирс, Люк Паскуалино, Кирстон Вэрэйнг, Роберт Пью, Элуиз Смит, Робин Мориссей, Пол Бирчард, Кейт Суини

Вкратце: Сюжет картины развернется вокруг 4 друзей, обнаруживших, что в их городке поселился оборотень. Когда чудовище начинает нападать на местных девственниц, четыре неудачника решают, что пришло время спасать оставшихся в живых девушек. Однако выбирают для этого не самый героический способ…



Страна: Великобритания
Студия: Ecosse Films, Notting Hill Films, SCOPE Invest, Scope Pictures, WestEnd Films
Продолжительность: 01:30:38
Перевод: Любительский двухголосый


Качество: BDRip (AVC)
Видео: MPEG-4 AVC, 1900 Кбит/c, 1024x436, 24.000 кадр/c
Аудио #1: Русский (АС3, 6 ch, 448 Кбит/c)
Аудио #2: Английский (АС3, 6 ch, 448 Кбит/c)
Субтитры: Английские






---[NoImage] x264 [info]: frame I:1233 Avg QP:14.39 size: 66329
---[NoImage] x264 [info]: frame P:30871 Avg QP:17.45 size: 19701
---[NoImage] x264 [info]: frame B:98423 Avg QP:20.05 size: 6100
______________________________________________________________________________
Общее
Уникальный идентификатор : 191648127626223244682137104166019212793 (0x902E163717142B50A6A1B01BA8B525F9)
Полное имя : D:Mои раздачиDevstvenniki-beregites.2012.BDRip.(AVC)-MediaClub.mkv
Формат : Matroska
Версия формата : Version 2
Размер файла : 1,77 Гбайт
Продолжительность : 1 ч. 30 м.
Общий поток : 2796 Кбит/сек
Название фильма : Девственники, берегитесь! (MediaClub-kaspr)
Дата кодирования : UTC 2013-06-05 09:41:41
Программа кодирования : mkvmerge v5.7.0 ('The Whirlwind') built on Aug 7 2012 14:11:40
Библиотека кодирования : libebml v1.2.3 + libmatroska v1.3.0

Видео
Идентификатор : 1
Формат : AVC
Формат/Информация : Advanced Video Codec
Профиль формата : High@L4.1
Параметр CABAC формата : Да
Параметр ReFrames формата : 9 кадров
Идентификатор кодека : V_MPEG4/ISO/AVC
Битрейт : 1900 Кбит/сек
Ширина : 1024 пикселя
Высота : 436 пикселей
Соотношение сторон : 2,35:1
Режим частоты кадров : Переменный
Частота кадров в оригинале : 24,000 кадра/сек
Цветовое пространство : YUV
Субдискретизация насыщенности : 4:2:0
Битовая глубина : 8 бит
Тип развёртки : Прогрессивная
Бит/(Пиксели*Кадры) : 0.177
Заголовок : Девственники, берегитесь! (MediaClub-kaspr)
Библиотека кодирования : x264 core 130 r2273 b3065e6
Настройки программы : cabac=1 / ref=9 / deblock=1:-3:-3 / analyse=0x3:0x133 / me=umh / subme=11 / psy=1 / psy_rd=1.00:0.10 / mixed_ref=1 / me_range=32 / chroma_me=1 / trellis=2 / 8x8dct=1 / cqm=0 / deadzone=21,11 / fast_pskip=0 / chroma_qp_offset=-3 / threads=12 / lookahead_threads=3 / sliced_threads=0 / nr=0 / decimate=0 / interlaced=0 / bluray_compat=0 / constrained_intra=0 / bframes=10 / b_pyramid=2 / b_adapt=2 / b_bias=0 / direct=3 / weightb=1 / open_gop=0 / weightp=2 / keyint=240 / keyint_min=22 / scenecut=40 / intra_refresh=0 / rc=2pass / mbtree=0 / bitrate=1900 / ratetol=1.0 / qcomp=0.60 / qpmin=0 / qpmax=69 / qpstep=4 / cplxblur=20.0 / qblur=0.5 / ip_ratio=1.40 / pb_ratio=1.30 / aq=1:1.00
Default : Да
Forced : Нет

Аудио #1
Идентификатор : 2
Формат : AC-3
Формат/Информация : Audio Coding 3
Расширение режима : CM (complete main)
Параметр Endianness формата : Big
Идентификатор кодека : A_AC3
Продолжительность : 1 ч. 30 м.
Вид битрейта : Постоянный
Битрейт : 448 Кбит/сек
Каналы : 6 каналов
Расположение каналов : Front: L C R, Side: L R, LFE
Частота : 48,0 КГц
Битовая глубина : 16 бит
Метод сжатия : С потерями
Размер потока : 290 Мбайт (16%)
Заголовок : Любительский двухголосый
Язык : Russian
Default : Да
Forced : Да

Аудио #2
Идентификатор : 3
Формат : AC-3
Формат/Информация : Audio Coding 3
Расширение режима : CM (complete main)
Параметр Endianness формата : Big
Идентификатор кодека : A_AC3
Продолжительность : 1 ч. 30 м.
Вид битрейта : Постоянный
Битрейт : 448 Кбит/сек
Каналы : 6 каналов
Расположение каналов : Front: L C R, Side: L R, LFE
Частота : 48,0 КГц
Битовая глубина : 16 бит
Метод сжатия : С потерями
Размер потока : 290 Мбайт (16%)
Заголовок : Оригинал
Язык : English
Default : Нет
Forced : Нет

Текст
Идентификатор : 4
Формат : UTF-8
Идентификатор кодека : S_TEXT/UTF8
Идентификатор кодека/Информация : UTF-8 Plain Text
Язык : English
Default : Нет
Forced : Нет

Меню
00:00:00.000 : en:Chapter 01
00:07:08.708 : en:Chapter 02
00:15:06.291 : en:Chapter 03
00:23:14.750 : en:Chapter 04
00:30:30.583 : en:Chapter 05
00:39:10.416 : en:Chapter 06
00:49:07.958 : en:Chapter 07
00:56:43.333 : en:Chapter 08
01:04:55.583 : en:Chapter 09
01:10:50.166 : en:Chapter 10
01:19:03.375 : en:Chapter 11
01:28:00.000 : en:Chapter 12


Релиз от:
загрузка...
Правила, инструкции, FAQ!!!
Торрент  Добавлен [05 июн 2013, 16:48] Скачать торрент
Скачать торрент
[ Размер 18.3 КБ / Просмотров 15 ]

Статус  
 
Размер  1.77 ГБ
Приватный: Нет (DHT включён)
.torrent скачан  0
Как залить торрент? | Как скачать Torrent? | Как смотреть и слушать онлайн?  


     Отправить личное сообщение
   
Страница 1 из 1
Показать сообщения за:  Поле сортировки  
Начать новую тему Ответить на тему

   Похожие торренты   Автор   Ответы   Просмотры   Последнее сообщение 
В этой теме нет новых непрочитанных сообщений. Скачать торрент Проверен (Melodic Rock | AOR) Bite The Bullet - Bite The Bullet - 1989, MP3, 320 kbps

в форуме AOR (Melodic Hard Rock, Arena rock), Размер: 110.75 МБ, Здоровье: 100%

Anonymous

0
1|0

0
0

08 окт 2016, 11:07

Anonymous Перейти к последнему сообщению

В этой теме нет новых непрочитанных сообщений. Скачать торрент Застрял в любви / Stuck in Love (2012) BDRip 720p

в форуме 720p | 1080p, Размер: 2.49 ГБ, Здоровье: 100%

Anonymous

0
33|2

30
81

15 дек 2013, 22:38

Anonymous Перейти к последнему сообщению

В этой теме нет новых непрочитанных сообщений. Скачать торрент Бесплатные образцы / Free Samples / Searching for Love (2012) BDRip 720p | P

в форуме 720p | 1080p, Размер: 3.4 ГБ, Здоровье: 0%

Anonymous

0
0|0

32
0

12 фев 2014, 22:38

Anonymous Перейти к последнему сообщению

В этой теме нет новых непрочитанных сообщений. Скачать торрент Проверен (Heavy) Girlschool - Take A Bite - 1988, APE (image+.cue), lossless

в форуме Heavy, Power, Progressive (Metal), Размер: 248.38 МБ, Здоровье: 0%

Anonymous

0
0|0

5
0

11 окт 2016, 21:49

Anonymous Перейти к последнему сообщению

В этой теме нет новых непрочитанных сообщений. Скачать торрент Проверен (Hard Rock) Strangelet - First Bite - 2014, MP3, 320 kbps

в форуме Classic Rock & Hard Rock, Размер: 110.62 МБ, Здоровье: 0%

Anonymous

0
0|0

0
0

14 ноя 2016, 18:54

Anonymous Перейти к последнему сообщению



Сейчас этот форум просматривают: нет зарегистрированных пользователей и гости: 2


Вы не можете начинать темы
Вы не можете отвечать на сообщения
Вы не можете редактировать свои сообщения
Вы не можете удалять свои сообщения
Вы не можете добавлять вложения

Перейти:  

!ВНИМАНИЕ!
 Ресурс не предоставляет электронные версии произведений, а занимается лишь коллекционированием и каталогизацией ссылок, присылаемых и публикуемых на форуме нашими читателями. Если вы являетесь правообладателем какого-либо представленного материала и не желаете чтобы ссылка на него находилась в нашем каталоге, свяжитесь с нами и мы незамедлительно удалим её. Файлы для обмена на трекере предоставлены пользователями сайта, и администрация не несёт ответственности за их содержание. Просьба не заливать файлы, защищенные авторскими правами, а также файлы нелегального содержания!