На всех торрентах на трекере установлена скидка на скачивание в размере 100 процентов(а).
 Возможность скачивания торрента НЕ зависит от ограничений при низком ратио, низком аплоаде, требуемом ратио или требуемом аплоаде.


Начать новую тему Ответить на тему
Статистика раздачи
Размер: 4.37 ГБ | Добавлен: 02 июн 2013, 00:16 | Скачали: 0
Сидеров: 0  [0 байт/сек]    Личеров: 0  [0 байт/сек]
Пред. тема | След. тема 

Автор
Сообщение

СообщениеДобавлено: 02 июн 2013, 00:16 

Час пик 3 / Rush Hour 3
Год выпуска: 2007
Страна: США, New Line Home Entertainment
Жанр: Боевик, триллер, комедия, криминал
Продолжительность: 01:30:47
Перевод: Профессиональный (полное дублирование)
Формат субтитров: srt

Режиссер: Бретт Рэтнер / Brett Ratner

В фильме снимались: Крис Такер, Джеки Чан, Хироюки Санада, Йоуки Кудо, Макс Фон Сюдов, Айван Аттал, Ноеми Ленуар, Жинчу Чжан, Тзи Ма, Роман Полански

Вкратце: Лос-анджелесского полицейского Джеймса Картера, допустившего грубую ошибку при аресте подозреваемого, переводят нагораздо менее престижную должность в дорожной полиции. Тем временем гонконгский полицейский инспектор Ли получает спецзадание: он должен охранять китайского посла Хана, который направляется в Лос-Анджелес, чтобы произнести там речь на саммите Всемирного уголовного суда.
Хан намеревается разоблачить интриги китайской Триады — самого опасного криминального синдиката в мире — и вывести на чистую воду преступных боссов. Представители Триады, разумеется, не дремлют. Они отправляют в Лос-Анджелес наемного убийцу, которому удается ранить посла в тот самый момент, когда он начинает произносить свою разоблачительную речь. Ли бросается вдогонку за преступником. Тем временем Картер, услышав по полицейскому радио сообщение о покушении на посла, мчится на место преступления… и, естественно, только путается под ногами у Ли.



Качество: BDRip
Контейнер: MKV
Видео: H264 / 5800 kbps / 1280x534 / 23,976 fps / L 4.1
Аудио 1: Русский дубляж / Dolby Digital / 5.1 / 48 kHz / 448 kbps
Аудио 2: Английский Dolby Digital / 5.1 / 48 kHz / 640 kbps
Cубтитры: Русские (только на китайские диалоги), Русские, Украинские, Английские
Чаптеры: есть

Source vs. Rip

Complete name : Rush.Hour.3.2007.Blu-ray.720p.x264.Rus.Eng.mkv
Format : Matroska
File size : 4.37 GiB
Duration : 1h 30mn
Overall bit rate : 6 885 Kbps
Movie name : HANSMER
Encoded date : UTC 2011-05-21 14:04:16
Writing application : mkvmerge v4.7.0 ('Just Like You Imagined') сборка от Apr 21 2011 01:13:14
Writing library : libebml v1.2.0 + libmatroska v1.1.0

Video
ID : 1
Format : AVC
Format/Info : Advanced Video Codec
Format profile : High@L4.1
Format settings, CABAC : Yes
Format settings, ReFrames : 12 frames
Codec ID : V_MPEG4/ISO/AVC
Duration : 1h 30mn
Bit rate : 5 800 Kbps
Width : 1 280 pixels
Height : 534 pixels
Display aspect ratio : 2.35:1
Frame rate : 23.976 fps
Color space : YUV
Chroma subsampling : 4:2:0
Bit depth : 8 bits
Scan type : Progressive
Bits/(Pixel*Frame) : 0.354
Stream size : 3.59 GiB (82%)
Writing library : x264 core 115 r1995 c1e60b9
Encoding settings : cabac=1 / ref=12 / deblock=1:-3:-3 / analyse=0x3:0x113 / me=esa / subme=10 / psy=1 / psy_rd=1.10:0.00 / mixed_ref=1 / me_range=24 / chroma_me=1 / trellis=2 / 8x8dct=1 / cqm=0 / deadzone=21,11 / fast_pskip=0 / chroma_qp_offset=-2 / threads=12 / sliced_threads=0 / nr=0 / decimate=0 / interlaced=0 / bluray_compat=0 / constrained_intra=0 / bframes=8 / b_pyramid=2 / b_adapt=2 / b_bias=0 / direct=3 / weightb=1 / open_gop=0 / weightp=2 / keyint=250 / keyint_min=23 / scenecut=40 / intra_refresh=0 / rc_lookahead=50 / rc=2pass / mbtree=0 / bitrate=5800 / ratetol=1.0 / qcomp=0.65 / qpmin=10 / qpmax=51 / qpstep=4 / cplxblur=20.0 / qblur=0.5 / vbv_maxrate=50000 / vbv_bufsize=62500 / nal_hrd=none / ip_ratio=1.40 / pb_ratio=1.30 / aq=2:0.60
Language : English
Matrix coefficients : BT.709-5, BT.1361, IEC 61966-2-4 709, SMPTE RP177

Audio #1
ID : 2
Format : AC-3
Format/Info : Audio Coding 3
Mode extension : CM (complete main)
Codec ID : A_AC3
Duration : 1h 30mn
Bit rate mode : Constant
Bit rate : 448 Kbps
Channel(s) : 6 channels
Channel positions : Front: L C R, Side: L R, LFE
Sampling rate : 48.0 KHz
Bit depth : 16 bits
Compression mode : Lossy
Stream size : 291 MiB (7%)
Language : Russian

Audio #2
ID : 3
Format : AC-3
Format/Info : Audio Coding 3
Mode extension : CM (complete main)
Codec ID : A_AC3
Duration : 1h 30mn
Bit rate mode : Constant
Bit rate : 640 Kbps
Channel(s) : 6 channels
Channel positions : Front: L C R, Side: L R, LFE
Sampling rate : 48.0 KHz
Bit depth : 16 bits
Compression mode : Lossy
Stream size : 416 MiB (9%)
Language : English

Text #1
ID : 4
Format : UTF-8
Codec ID : S_TEXT/UTF8
Codec ID/Info : UTF-8 Plain Text
Title : Forced
Language : Russian

Text #2
ID : 5
Format : UTF-8
Codec ID : S_TEXT/UTF8
Codec ID/Info : UTF-8 Plain Text
Title : Full
Language : Russian

Text #3
ID : 6
Format : UTF-8
Codec ID : S_TEXT/UTF8
Codec ID/Info : UTF-8 Plain Text
Language : Ukrainian

Text #4
ID : 7
Format : UTF-8
Codec ID : S_TEXT/UTF8
Codec ID/Info : UTF-8 Plain Text
Language : English

Menu
00:00:00.000 : en:Main Titles
00:05:06.556 : en:Attack at the World Court
00:09:24.230 : en:The Promise
00:12:03.597 : en:The Master
00:17:21.081 : en:Hospital Ambush
00:20:44.117 : en:Interrogation
00:24:06.111 : en:Welcome to Paris
00:29:48.661 : en:Searching for Genevieve
00:35:57.989 : en:Superspy Chase
00:41:56.472 : en:Brothers
00:47:48.323 : en:Showtime!
00:54:17.212 : en:Shy Shen
01:05:50.988 : en:The First Cut
01:11:06.512 : en:Tower Duel
01:15:14.760 : en:What Goes Up
01:21:43.857 : en:Outtakes/End Credits
загрузка...
Правила, инструкции, FAQ!!!
Торрент  Добавлен [02 июн 2013, 00:16] Скачать торрент
Скачать торрент
[ Размер 22.26 КБ / Просмотров 8 ]

Статус  
 
Размер  4.37 ГБ
Приватный: Нет (DHT включён)
.torrent скачан  0
Как залить торрент? | Как скачать Torrent? | Как смотреть и слушать онлайн?  


     Отправить личное сообщение
   
Страница 1 из 1
Показать сообщения за:  Поле сортировки  
Начать новую тему Ответить на тему

   Похожие торренты   Автор   Ответы   Просмотры   Последнее сообщение 
В этой теме нет новых непрочитанных сообщений. Скачать торрент Проверен Час пик : Трилогия / Rush Hour : Trilogy (1998-2007) BDRip 720p | 60 fps

в форуме Трилогии, Размер: 11.24 ГБ, Здоровье: 100%

Гость

0
143|62

742
409

15 ноя 2015, 23:58

Гость Перейти к последнему сообщению

В этой теме нет новых непрочитанных сообщений. Скачать торрент Проверен Час пик 3 / Rush Hour 3 (2007) BDRip

в форуме Боевики, Размер: 1.45 ГБ, Здоровье: 100%

Anonymous

0
17|2

80
671

18 июл 2014, 08:39

Anonymous Перейти к последнему сообщению

В этой теме нет новых непрочитанных сообщений. Скачать торрент Проверен Час пик / Rush Hour (1998) BDRip

в форуме Боевики, Размер: 1.45 ГБ, Здоровье: 100%

Anonymous

0
54|0

121
35

30 мар 2015, 18:35

Anonymous Перейти к последнему сообщению

В этой теме нет новых непрочитанных сообщений. Скачать торрент Проверен Jennifer Rush - Jennifer Rush / Now Is The Hour (1984, 2010) [APE|Lossless]<Pop>

в форуме Зарубежная музыка, Размер: 606.9 МБ, Здоровье: 50%

Гость

0
1|2

54
0

12 янв 2015, 20:56

Гость Перейти к последнему сообщению

В этой теме нет новых непрочитанных сообщений. Скачать торрент Проверен Фото за час / One Hour Photo (2002) BDRip 720p

в форуме 720p | 1080p, Размер: 6.13 ГБ, Здоровье: 100%

Anonymous

0
5|2

18
7

05 янв 2015, 20:10

Anonymous Перейти к последнему сообщению



Сейчас этот форум просматривают: нет зарегистрированных пользователей и гости: 1


Вы не можете начинать темы
Вы не можете отвечать на сообщения
Вы не можете редактировать свои сообщения
Вы не можете удалять свои сообщения
Вы не можете добавлять вложения

Перейти:  

!ВНИМАНИЕ!
 Ресурс не предоставляет электронные версии произведений, а занимается лишь коллекционированием и каталогизацией ссылок, присылаемых и публикуемых на форуме нашими читателями. Если вы являетесь правообладателем какого-либо представленного материала и не желаете чтобы ссылка на него находилась в нашем каталоге, свяжитесь с нами и мы незамедлительно удалим её. Файлы для обмена на трекере предоставлены пользователями сайта, и администрация не несёт ответственности за их содержание. Просьба не заливать файлы, защищенные авторскими правами, а также файлы нелегального содержания!