На всех торрентах на трекере установлена скидка на скачивание в размере 100 процентов(а).
 Возможность скачивания торрента НЕ зависит от ограничений при низком ратио, низком аплоаде, требуемом ратио или требуемом аплоаде.


Начать новую тему Ответить на тему
Статистика раздачи
Размер: 4.04 ГБ | Добавлен: 02 июн 2013, 00:10 | Скачали: 0
Сидеров: 0  [0 байт/сек]    Личеров: 0  [0 байт/сек]
Пред. тема | След. тема 

Автор
Сообщение

СообщениеДобавлено: 02 июн 2013, 00:10 

Час Пик 2 / Rush Hour 2
Страна: США, Гонконг
Жанр: боевик, комедия
Год выпуска: 2001
Продолжительность: 01:30:04
Перевод:
1: Профессиональный (полное дублирование)
2: Профессиональный (многоголосый закадровый) - LDV
3: Авторский (одноголосый закадровый) - Гаврилов

Субтитры: русские, английские
Навигация по главам: нет

Режиссер: Бретт Рэтнер / Brett Ratner

В ролях: Джеки Чан, Крис Такер, Джон Лоун, Чжан Цзыи, Розелин Санчез

Описание: Детективы Ли и Картер снова вместе! На этот раз — в Гонконге, куда Картер приехал, чтобы отдохнуть и оттянуться в компании старого приятеля. Приятель же как раз в этот момент занят важным расследованием — он выслеживает одного из боссов Триады, подозреваемого в организации взрыва в американском посольстве...


P.S. Присутствует английский хардсаб на азиатскую речь.



Качество: WEB-DL 720p
Контейнер: MKV
Видео: AVC 1280x536, (2.40:1), 23,976 fps, 3975 Kbps
Аудио №1: Rus; AC3 5.1; 448 Kbps; 48 kHz; Dub
Аудио №2: Rus; AC3 5.1; 384 Kbps; 48 kHz; MVO (LDV)
Аудио №3: Rus; DTS-ES 6.1; 755 Kbps; 48 kHz; AVO Гаврилов
Аудио №4: Eng; DTS-ES 6.1; 755 Kbps; 48 kHz; Original
Субтитры: Rus, Eng (srt)

Скриншоты:


General
Unique ID : 189522316966285996669392017711383817716 (0x8E94ABA858818537A1C20C155485ADF4)
Complete name : D:FINALRush Hour 2.mkv
Format : Matroska
Format version : Version 2
File size : 3.32 GiB
Duration : 1h 30mn
Overall bit rate : 5 283 Kbps
Encoded date : UTC 2013-01-26 13:31:32
Writing application : mkvmerge v5.8.0 ('No Sleep / Pillow') built on Sep 2 2012 15:37:04
Writing library : libebml v1.2.3 + libmatroska v1.3.0
Video #1
ID : 1
Format : AVC
Format/Info : Advanced Video Codec
Format profile : Main@L3.1
Format settings, CABAC : No
Format settings, ReFrames : 2 frames
Codec ID : V_MPEG4/ISO/AVC
Duration : 1h 30mn
Bit rate : 3 975 Kbps
Width : 1 280 pixels
Height : 536 pixels
Display aspect ratio : 2.40:1
Frame rate mode : Constant
Frame rate : 23.976 fps
Color space : YUV
Chroma subsampling : 4:2:0
Bit depth : 8 bits
Scan type : Progressive
Bits/(Pixel*Frame) : 0.242
Stream size : 2.50 GiB (75%)
Default : Yes
Forced : No
Color primaries : BT.709
Transfer characteristics : BT.709
Matrix coefficients : BT.709
Audio #2
ID : 2
Format : AC-3
Format/Info : Audio Coding 3
Mode extension : CM (complete main)
Format settings, Endianness : Big
Codec ID : A_AC3
Duration : 1h 30mn
Bit rate mode : Constant
Bit rate : 448 Kbps
Channel(s) : 6 channels
Channel positions : Front: L C R, Side: L R, LFE
Sampling rate : 48.0 KHz
Bit depth : 16 bits
Compression mode : Lossy
Stream size : 289 MiB (8%)
Title : дубляж
Language : Russian
Default : Yes
Forced : No
Audio #3
ID : 3
Format : DTS
Format/Info : Digital Theater Systems
Format profile : ES
Codec ID : A_DTS
Duration : 1h 30mn
Bit rate mode : Constant
Bit rate : 755 Kbps
Channel(s) : 7 channels / 6 channels
Channel positions : Front: L C R, Side: L R, Back: C, LFE / Front: L C R, Side: L R, LFE
Sampling rate : 48.0 KHz
Bit depth : 24 bits
Compression mode : Lossy
Stream size : 486 MiB (14%)
Title : Original
Language : English
Default : No
Forced : No
Text #4
ID : 4
Format : UTF-8
Codec ID : S_TEXT/UTF8
Codec ID/Info : UTF-8 Plain Text
Title : rus
Language : Russian
Default : No
Forced : No
Text #5
ID : 5
Format : UTF-8
Codec ID : S_TEXT/UTF8
Codec ID/Info : UTF-8 Plain Text
Title : eng
Language : English
Default : No
Forced : No
загрузка...
Правила, инструкции, FAQ!!!
Торрент  Добавлен [02 июн 2013, 00:10] Скачать торрент
Скачать торрент
[ Размер 20.6 КБ / Просмотров 9 ]

Статус  
 
Размер  4.04 ГБ
Приватный: Нет (DHT включён)
.torrent скачан  0
Как залить торрент? | Как скачать Torrent? | Как смотреть и слушать онлайн?  


     Отправить личное сообщение
   
Страница 1 из 1
Показать сообщения за:  Поле сортировки  
Начать новую тему Ответить на тему

   Похожие торренты   Автор   Ответы   Просмотры   Последнее сообщение 
В этой теме нет новых непрочитанных сообщений. Скачать торрент Проверен Час пик 2 / Rush Hour 2 (2001) WEB-DLRip | D

в форуме Боевики, Размер: 1.45 ГБ, Здоровье: 100%

Anonymous

0
108|15

95
79

30 мар 2015, 18:48

Anonymous Перейти к последнему сообщению

В этой теме нет новых непрочитанных сообщений. Скачать торрент Проверен Час пик : Трилогия / Rush Hour : Trilogy (1998-2007) BDRip 720p | 60 fps

в форуме Трилогии, Размер: 11.24 ГБ, Здоровье: 100%

Гость

0
143|62

720
409

15 ноя 2015, 23:58

Гость Перейти к последнему сообщению

В этой теме нет новых непрочитанных сообщений. Скачать торрент Час пик 2 / Rush Hour 2 (Бретт Рэтнер / Brett Ratner) [2001, США, Гонконг, Комедия, Боевик, HDRip]

в форуме Комедии, Размер: 1.32 ГБ, Здоровье: 100%

Anonymous

0
8|2

49
0

24 апр 2014, 14:06

Anonymous Перейти к последнему сообщению

В этой теме нет новых непрочитанных сообщений. Скачать торрент Проверен Jennifer Rush - Jennifer Rush / Now Is The Hour (1984, 2010) [APE|Lossless]<Pop>

в форуме Зарубежная музыка, Размер: 606.9 МБ, Здоровье: 50%

Гость

0
1|2

54
0

12 янв 2015, 20:56

Гость Перейти к последнему сообщению

В этой теме нет новых непрочитанных сообщений. Скачать торрент Проверен Час пик / Rush Hour (1998) BDRip

в форуме Боевики, Размер: 1.45 ГБ, Здоровье: 100%

Anonymous

0
54|0

121
35

30 мар 2015, 18:35

Anonymous Перейти к последнему сообщению



Сейчас этот форум просматривают: нет зарегистрированных пользователей и гости: 1


Вы не можете начинать темы
Вы не можете отвечать на сообщения
Вы не можете редактировать свои сообщения
Вы не можете удалять свои сообщения
Вы не можете добавлять вложения

Перейти:  

!ВНИМАНИЕ!
 Ресурс не предоставляет электронные версии произведений, а занимается лишь коллекционированием и каталогизацией ссылок, присылаемых и публикуемых на форуме нашими читателями. Если вы являетесь правообладателем какого-либо представленного материала и не желаете чтобы ссылка на него находилась в нашем каталоге, свяжитесь с нами и мы незамедлительно удалим её. Файлы для обмена на трекере предоставлены пользователями сайта, и администрация не несёт ответственности за их содержание. Просьба не заливать файлы, защищенные авторскими правами, а также файлы нелегального содержания!