На всех торрентах на трекере установлена скидка на скачивание в размере 100 процентов(а).
 Возможность скачивания торрента НЕ зависит от ограничений при низком ратио, низком аплоаде, требуемом ратио или требуемом аплоаде.


Начать новую тему Ответить на тему
Статистика раздачи
Размер: 5.67 ГБ | Добавлен: 26 май 2013, 15:53 | Скачали: 0
Сидеров: 0  [0 байт/сек]    Личеров: 0  [0 байт/сек]
Пред. тема | След. тема 

Автор
Сообщение

СообщениеДобавлено: 26 май 2013, 15:53 

Название: Соммерсби
Оригинальное название: Sommersby
Год выпуска: 1993
Жанр: Драма, мелодрама, детектив
Выпущено: США, Франция, Alcor Films, Canal+ [fr], Regency Enterprises
Режиссер: Джон Эмиел

В фильме снимались: Ричард Гир, Джоди Фостер, Билл Пуллман, Джеймс Эрл Джонс, Лэнни Флаэрти, Уильям Уиндом, Уенделл Веллман, Бретт Келли, Клариса Тейлор, Фрэнки Фэйзон, Ричард Хэмилтон, Карен Киршенбауер, Дин Витуорт, Стэн Келли, Стефани Уивер, Джош МакЛерран, Марк Уильямс, Мьюз Уотсон, Пол Остин, Фрэнк Хойт Тейлор, Билли Л. 'Бутч' Фрэнк, Дэйл Стюарт, Джэйк Кресс, Даг Слоун, Рэй МакКиннон, Мори Чайкин, Бэрри МакЛерран, Ричард Лайнбэк, Майкл Голд, Джо Башам, Патрик Морс, Джо Нил, Гарри Т. Дэниэл

Вкратце: После окончания Гражданской войны Джек Соммерсби, которого все считали погибшим, возвращается в родной городок. Все давно перестали ждать его и потому чрезвычайно рады появлению ветерана в родных краях. И лишь жена, которая всегда верила, что её муж вернётся, относится к Джеку странно — будто она ему не рада. Находятся и другие противники Соммерсби. А Джек постепенно налаживает хозяйство, помогает жителям городка решить проблему нищенского существования, восстанавливает отношения с женой. Однако, чем больше Джек старается жить обычной жизнью, тем больше у его жены появляется подозрений: действительно ли этот человек её муж?

Качество: BDRip 720р

Продолжительность: 01:53:24

Видео: MPEG-4 AVC, 5369 Kбит/с, 1280x546
Аудио 1: русский, 48 kHz, AC3, 6 ch, 384 kbps avg, [Профессиональный многоголосый, R5]
Аудио 2: русский, 48 kHz, AC3, 6 ch, 448 kbps avg, HTB+ [Профессиональный двухголосый]
Аудио 3: русский, 48 kHz, AC3, 2 ch, 192 kbps avg, Алексей Михалёв [Авторский]


Аудио: английский, 48 kHz, AC3, 6 ch, 640 kbps avg, [Оригинал]
Субтитры: русские
Субтитры: английские





Общее
Полное имя : E:VideoSommersbi.1993.x264.BDRip.720pSommersbi.1993.eng.srt
Размер файла : 95,9 Кбайт

Общее
Полное имя : E:VideoSommersbi.1993.x264.BDRip.720pSommersbi.1993.Original.eng.ac3
Формат : AC-3
Формат/Информация : Audio Coding 3
Размер файла : 519 Мбайт
Продолжительность : 1 ч. 53 м.
Режим общего битрейта : Постоянный
Общий поток : 640 Кбит/сек

Аудио
Формат : AC-3
Формат/Информация : Audio Coding 3
Расширение режима : CM (complete main)
Параметр Endianness формата : Big
Продолжительность : 1 ч. 53 м.
Вид битрейта : Постоянный
Битрейт : 640 Кбит/сек
Каналы : 6 каналов
Расположение каналов : Front: L C R, Side: L R, LFE
Частота : 48,0 КГц
Битовая глубина : 16 бит
Метод сжатия : С потерями
Размер потока : 519 Мбайт (100%)

Общее
Полное имя : E:VideoSommersbi.1993.x264.BDRip.720pSommersbi.1993.rus.srt
Размер файла : 90,0 Кбайт

Общее
Уникальный идентификатор : 193362671909861140354843884086933466320 (0x91784BC661590E46BE85946A5E0E2CD0)
Полное имя : E:VideoSommersbi.1993.x264.BDRip.720pSommersbi.1993.x264.BDRip.720p.mkv
Формат : Matroska
Версия формата : Version 4 / Version 2
Размер файла : 5,17 Гбайт
Продолжительность : 1 ч. 53 м.
Общий поток : 6523 Кбит/сек
Название фильма : Соммерсби / Sommersby / 1993 / BDRip -- STarankov
Дата кодирования : UTC 2010-02-22 21:41:31
Программа кодирования : mkvmerge v5.9.0 ('On The Loose') built on Dec 9 2012 15:37:01
Библиотека кодирования : libebml v1.3.0 + libmatroska v1.4.0

Видео
Идентификатор : 1
Формат : AVC
Формат/Информация : Advanced Video Codec
Профиль формата : High@L4.1
Параметр CABAC формата : Да
Параметр ReFrames формата : 9 кадров
Идентификатор кодека : V_MPEG4/ISO/AVC
Продолжительность : 1 ч. 53 м.
Битрейт : 5369 Кбит/сек
Ширина : 1280 пикселей
Высота : 546 пикселей
Соотношение сторон : 2,35:1
Режим частоты кадров : Постоянный
Частота кадров : 23,976 кадра/сек
Цветовое пространство : YUV
Субдискретизация насыщенности : 4:2:0
Битовая глубина : 8 бит
Тип развёртки : Прогрессивная
Бит/(Пиксели*Кадры) : 0.320
Размер потока : 4,25 Гбайт (82%)
Библиотека кодирования : x264 core 130 r2273 b3065e6
Настройки программы : cabac=1 / ref=9 / deblock=1:-1:-1 / analyse=0x3:0x113 / me=umh / subme=9 / psy=1 / psy_rd=1.00:0.15 / mixed_ref=1 / me_range=24 / chroma_me=1 / trellis=2 / 8x8dct=1 / cqm=0 / deadzone=21,11 / fast_pskip=1 / chroma_qp_offset=-3 / threads=6 / lookahead_threads=1 / sliced_threads=0 / nr=0 / decimate=1 / interlaced=0 / bluray_compat=0 / constrained_intra=0 / bframes=16 / b_pyramid=2 / b_adapt=2 / b_bias=0 / direct=1 / weightb=0 / open_gop=0 / weightp=2 / keyint=230 / keyint_min=23 / scenecut=40 / intra_refresh=0 / rc=crf / mbtree=0 / crf=17.5 / qcomp=0.60 / qpmin=0 / qpmax=69 / qpstep=4 / ip_ratio=1.40 / pb_ratio=1.30 / aq=1:1.00
Язык : English
Default : Да
Forced : Нет

Аудио #1
Идентификатор : 2
Формат : AC-3
Формат/Информация : Audio Coding 3
Расширение режима : CM (complete main)
Параметр Endianness формата : Big
Идентификатор кодека : A_AC3
Продолжительность : 1 ч. 53 м.
Вид битрейта : Постоянный
Битрейт : 384 Кбит/сек
Каналы : 6 каналов
Расположение каналов : Front: L C R, Side: L R, LFE
Частота : 48,0 КГц
Битовая глубина : 16 бит
Метод сжатия : С потерями
Размер потока : 311 Мбайт (6%)
Заголовок : MVO (R5)
Язык : Russian
Default : Да
Forced : Нет

Аудио #2
Идентификатор : 3
Формат : AC-3
Формат/Информация : Audio Coding 3
Расширение режима : CM (complete main)
Параметр Endianness формата : Big
Идентификатор кодека : A_AC3
Продолжительность : 1 ч. 53 м.
Вид битрейта : Постоянный
Битрейт : 448 Кбит/сек
Каналы : 6 каналов
Расположение каналов : Front: L C R, Side: L R, LFE
Частота : 48,0 КГц
Битовая глубина : 16 бит
Метод сжатия : С потерями
Размер потока : 363 Мбайт (7%)
Заголовок : DVO (HTB+)
Язык : Russian
Default : Нет
Forced : Нет

Аудио #3
Идентификатор : 4
Формат : AC-3
Формат/Информация : Audio Coding 3
Расширение режима : CM (complete main)
Параметр Endianness формата : Big
Идентификатор кодека : A_AC3
Продолжительность : 1 ч. 53 м.
Вид битрейта : Постоянный
Битрейт : 192 Кбит/сек
Каналы : 2 канала
Расположение каналов : Front: L R
Частота : 48,0 КГц
Битовая глубина : 16 бит
Метод сжатия : С потерями
Размер потока : 156 Мбайт (3%)
Заголовок : AVO (Алексей Михалёв)
Язык : Russian
Default : Нет
Forced : Нет

загрузка...
Правила, инструкции, FAQ!!!
Торрент  Добавлен [26 май 2013, 15:53] Скачать торрент
Скачать торрент
[ Размер 29 КБ / Просмотров 10 ]

Статус  
 
Размер  5.67 ГБ
Приватный: Нет (DHT включён)
.torrent скачан  0
Как залить торрент? | Как скачать Torrent? | Как смотреть и слушать онлайн?  


     Отправить личное сообщение
   
Страница 1 из 1
Показать сообщения за:  Поле сортировки  
Начать новую тему Ответить на тему

   Похожие торренты   Автор   Ответы   Просмотры   Последнее сообщение 
В этой теме нет новых непрочитанных сообщений. Скачать торрент Проверен Верные друзья (1954) BDRip [H.264/720р-LQ]

в форуме 720p | 1080p, Размер: 2.18 ГБ, Здоровье: 100%

Anonymous

0
22|2

56
0

05 июл 2014, 23:36

Anonymous Перейти к последнему сообщению

В этой теме нет новых непрочитанных сообщений. Скачать торрент Проверен Добыча / La proie (2011) BDRip 720р | L1, A

в форуме 720p | 1080p, Размер: 3.85 ГБ, Здоровье: 100%

Anonymous

0
97|35

52
401

15 сен 2014, 08:39

Anonymous Перейти к последнему сообщению

В этой теме нет новых непрочитанных сообщений. Скачать торрент Без чувств / Senseless (1998) BDRip [H.264/720р-LQ]

в форуме 720p | 1080p, Размер: 2.18 ГБ, Здоровье: 100%

Anonymous

0
16|1

45
39

08 янв 2014, 22:44

Anonymous Перейти к последнему сообщению

В этой теме нет новых непрочитанных сообщений. Скачать торрент Проверен Спартак / Spartacus (1960) BDRip [H.264/720р-LQ]

в форуме 720p | 1080p, Размер: 4.27 ГБ, Здоровье: 100%

Гость

0
32|11

72
0

11 май 2015, 00:49

Гость Перейти к последнему сообщению

В этой теме нет новых непрочитанных сообщений. Скачать торрент Приключения Васи Куролесова (1981) BDRip [H.264/720р-LQ]

в форуме Отечественные мультфильмы (HD Video), Размер: 744.45 МБ, Здоровье: 0%

Anonymous

0
0|0

49
1

02 фев 2014, 21:03

Anonymous Перейти к последнему сообщению



Сейчас этот форум просматривают: нет зарегистрированных пользователей и гости: 2


Вы не можете начинать темы
Вы не можете отвечать на сообщения
Вы не можете редактировать свои сообщения
Вы не можете удалять свои сообщения
Вы не можете добавлять вложения

Перейти:  

!ВНИМАНИЕ!
 Ресурс не предоставляет электронные версии произведений, а занимается лишь коллекционированием и каталогизацией ссылок, присылаемых и публикуемых на форуме нашими читателями. Если вы являетесь правообладателем какого-либо представленного материала и не желаете чтобы ссылка на него находилась в нашем каталоге, свяжитесь с нами и мы незамедлительно удалим её. Файлы для обмена на трекере предоставлены пользователями сайта, и администрация не несёт ответственности за их содержание. Просьба не заливать файлы, защищенные авторскими правами, а также файлы нелегального содержания!